<?xml version="1.0" standalone="no"?>
<!DOCTYPE svg PUBLIC "-//W3C//DTD SVG 1.1//EN" "http://www.w3.org/Graphics/SVG/1.1/DTD/svg11.dtd" >
<svg xmlns="http://www.w3.org/2000/svg">
<metadata>Generated by IcoMoon</metadata>
<defs>
<font id="icomoon" horiz-adv-x="1024">
<font-face units-per-em="1024" ascent="960" descent="-64" />
<missing-glyph horiz-adv-x="1024" />
<glyph unicode="&#x20;" horiz-adv-x="512" d="" />
<glyph unicode="&#xe900;" glyph-name="add" d="M512 960c27.080 0 49.399-20.385 52.45-46.647l0.355-6.158-0.018-406.357 406.408-0.033c29.163 0 52.805-23.642 52.805-52.805 0-27.080-20.385-49.399-46.647-52.45l-6.158-0.355-406.408 0.018 0.018-406.408c0-29.163-23.642-52.805-52.805-52.805-27.080 0-49.399 20.385-52.45 46.647l-0.355 6.158-0.033 406.408-406.357-0.018c-29.163 0-52.805 23.642-52.805 52.805 0 27.080 20.385 49.399 46.647 52.45l6.158 0.355 406.357 0.033 0.033 406.357c0 29.163 23.642 52.805 52.805 52.805z" />
<glyph unicode="&#xe901;" glyph-name="arrowBottom" horiz-adv-x="1877" d="M1118.83-7.519l698.256 722.815c32.744 33.896 31.81 87.918-2.085 120.661-15.91 15.37-37.167 23.96-59.288 23.96h-1519.259c-47.128 0-85.333-38.205-85.333-85.333 0-22.121 8.591-43.378 23.96-59.288l698.256-722.815c65.488-67.791 173.532-69.658 241.323-4.17 1.414 1.366 2.804 2.756 4.17 4.17z" />
<glyph unicode="&#xe902;" glyph-name="arrowLeft" horiz-adv-x="614" d="M47.115 530.498l433.689 418.954c20.337 19.646 52.751 19.086 72.397-1.251 9.222-9.546 14.376-22.3 14.376-35.573v-911.556c0-28.277-22.923-51.2-51.2-51.2-13.273 0-26.027 5.154-35.573 14.376l-433.689 418.954c-40.675 39.293-41.795 104.119-2.502 144.794 0.82 0.848 1.654 1.683 2.502 2.502z" />
<glyph unicode="&#xe903;" glyph-name="arrowRight" horiz-adv-x="717" d="M593.738 383.202l-433.689-418.954c-20.337-19.646-52.751-19.086-72.397 1.251-9.222 9.546-14.376 22.3-14.376 35.573v911.556c0 28.277 22.923 51.2 51.2 51.2 13.273 0 26.027-5.154 35.573-14.376l433.689-418.954c40.675-39.293 41.795-104.119 2.502-144.794-0.82-0.848-1.654-1.683-2.502-2.502z" />
<glyph unicode="&#xe904;" glyph-name="arrowTop" horiz-adv-x="1877" d="M1118.83 903.519l698.256-722.815c32.744-33.896 31.81-87.918-2.085-120.662-15.91-15.369-37.167-23.96-59.288-23.96h-1519.259c-47.128 0-85.333 38.205-85.333 85.333 0 22.121 8.591 43.378 23.96 59.288l698.256 722.815c65.488 67.791 173.532 69.658 241.323 4.17 1.414-1.366 2.804-2.756 4.17-4.17z" />
<glyph unicode="&#xe905;" glyph-name="banque" horiz-adv-x="1075" d="M525.522 958.571l3.732-1.783 184.336-109.506c10.876-6.461 14.456-20.516 7.994-31.392-5.743-9.668-17.486-13.57-27.664-9.78l-3.728 1.786-172.642 102.582-411.075-243.585h824.304l-164.92 100.842c-9.594 5.867-13.345 17.659-9.425 27.787l1.833 3.705c5.867 9.594 17.659 13.345 27.787 9.425l3.705-1.833 234.356-143.311c18.5-11.313 12.139-38.722-7.787-42.104l-4.163-0.344-68.172 0.055c0.359-2.31 0.545-4.677 0.545-7.088v-39.197c0-25.302-20.511-45.812-45.812-45.812l-38.208 0.033v-433.869l16.103-0.034c35.72 0 65.074-27.253 68.404-62.101l0.315-6.618v-21.709c0-35.72-27.253-65.074-62.101-68.404l-6.618-0.315h-492.965c-12.651 0-22.906 10.255-22.906 22.906 0 11.245 8.103 20.598 18.789 22.537l4.117 0.369h492.965c11.245 0 20.598 8.103 22.537 18.789l0.369 4.117v21.709c0 11.245-8.103 20.598-18.789 22.537l-4.117 0.369h-726.065c-11.245 0-20.598-8.103-22.537-18.789l-0.369-4.117v-21.709c0-11.245 8.103-20.598 18.789-22.537l4.117-0.369h143.801c12.651 0 22.906-10.255 22.906-22.906 0-11.245-8.103-20.598-18.789-22.537l-4.117-0.369h-143.801c-35.72 0-65.074 27.253-68.404 62.101l-0.315 6.618v21.709c0 35.72 27.253 65.074 62.101 68.404l6.487 0.349v433.869l-15.24-0.033c-25.302 0-45.812 20.511-45.812 45.812v39.197c0 2.411 0.186 4.778 0.545 7.088l-66.972-0.055c-21.841 0-30.61 27.012-15.106 40.176l3.428 2.436 494.61 293.128c6.007 3.56 13.234 4.15 19.645 1.771zM700.16 95.181v433.869h-114.534v-433.869h114.534zM425.318 529.050h-114.534v-433.869h114.534v433.869zM264.987 526.981h-68.719v-430.637h68.719v430.637zM539.862 526.981h-68.719v-430.637h68.719v430.637zM814.737 526.981h-68.719v-430.637h68.719v430.637zM898.726 614.027h-763.541v-39.197h763.541v39.197zM516.956 839.524c39.358 0 71.264-31.906 71.264-71.264s-31.906-71.264-71.264-71.264c-39.358 0-71.264 31.906-71.264 71.264s31.906 71.264 71.264 71.264z" />
<glyph unicode="&#xe906;" glyph-name="basket" d="M307.2 140.8c56.32 0 102.4-46.080 102.4-102.4 0-53.356-41.357-97.521-93.598-102.022l-8.802-0.378c-56.32 0-101.888 46.080-101.888 102.4 0 53.356 40.898 97.521 93.090 102.022l8.798 0.378zM819.2 140.8c56.32 0 102.4-46.080 102.4-102.4 0-53.356-41.357-97.521-93.598-102.022l-8.802-0.378c-56.32 0-101.888 46.080-101.888 102.4 0 53.356 40.898 97.521 93.090 102.022l8.798 0.378zM307.2 56.471c-10.214 0-18.071-7.857-18.071-18.071s7.857-18.071 18.071-18.071c10.499 0 18.583 8.14 18.583 18.071s-8.084 18.071-18.583 18.071zM819.2 56.471c-10.214 0-18.071-7.857-18.071-18.071s7.857-18.071 18.071-18.071c10.499 0 18.583 8.14 18.583 18.071s-8.084 18.071-18.583 18.071zM167.424 960l48.128-102.4h757.248c28.16 0 51.2-23.040 51.2-51.2 0-6.528-1.152-13.056-3.456-18.936l-2.688-5.64-183.296-332.288c-15.957-29.099-45.682-49.163-80.103-52.305l-9.497-0.431h-381.44l-46.080-83.456-1.536-6.144c0-5.973 3.911-10.88 9.363-12.35l3.437-0.45h592.896v-102.4h-614.4c-56.32 0-102.4 46.080-102.4 102.4 0 14.336 2.949 28.017 8.323 40.255l4.477 8.897 69.12 125.44-184.32 388.608h-102.4v102.4h167.424zM855.582 737.129h-562.718l104.328-219.859h337.077l121.314 219.859z" />
<glyph unicode="&#xe907;" glyph-name="battery" horiz-adv-x="539" d="M390.928 960c13.229 0 24.232-9.533 26.513-22.104l0.434-4.844-0.029-85.1 13.312-0.025c59.53 0 107.789-48.259 107.789-107.789v-646.737c0-59.53-48.259-107.789-107.789-107.789h-323.368c-59.53 0-107.789 48.259-107.789 107.789v646.737c0 59.531 48.259 107.789 107.789 107.789l6.737 0.025 0.039 85.1c0 13.229 9.533 24.232 22.104 26.513l4.844 0.434h249.414zM431.158 794.033h-323.368c-27.639 0-50.419-20.806-53.532-47.609l-0.363-6.285v-646.737c0-27.639 20.806-50.419 47.609-53.532l6.285-0.363h323.368c27.639 0 50.419 20.806 53.532 47.609l0.363 6.285v646.737c0 27.639-20.806 50.419-47.609 53.532l-6.285 0.363zM280.217 689.386c14.401 22.869 49.75 12.666 49.75-14.36v0l-0.024-222.686 76.083-0.038c19.627 0 32.159-20.026 24.914-37.258v0l-2.029-3.917-163.678-263.27c-14.312-23.021-49.832-12.879-49.832 14.228v0l-0.038 229.569-73.85-0.046c-19.692 0-32.218 20.144-24.86 37.389v0l2.057 3.918zM276.049 581.688l-85.747-136.138 52.046-0.046c13.229 0 24.232-9.533 26.513-22.104v0l0.434-4.844-0.038-162.123 88.28 142.013-54.518-0.038c-13.229 0-24.232 9.533-26.513 22.104v0l-0.434 4.844-0.024 156.332zM363.951 906.134h-195.53v-58.181h195.53v58.181z" />
<glyph unicode="&#xe908;" glyph-name="bed" horiz-adv-x="1418" d="M1101.783 959.945c110.382 1.982 176.112-49.313 181.619-145.629l0.376-13.412-0.077-224.509 2.884-0.302c82.548-13.581 125.537-79.339 129.63-184.335l0.323-16.903v-368.798c0-21.752-17.633-39.385-39.385-39.385v0h-96.962c-15.379 0-29.351 8.952-35.779 22.923v0l-38.009 82.602h-998.951l-20.655-76.426c-4.065-15.026-16.503-26.035-31.467-28.553v0l-6.551-0.546h-109.394c-21.751 0-39.385 17.633-39.385 39.385v0l0.398 441.602c9.844 68.745 53.595 110.713 123.459 124.194l0.076 229.611c1.386 97.178 56.814 153.242 153.563 158.138l14.101 0.35 810.187-0.006zM1337.738 232.33h-1259.047l0.053-186.835h39.857l20.709 76.367c4.065 15.026 16.503 26.035 31.467 28.553v0l6.551 0.546h1054.317c15.379 0 29.351-8.952 35.779-22.923v0l37.993-82.543h32.295l0.026 186.835zM1276.351 497.866l-1099.024-0.021c-64.854 0-92.945-19.378-98.558-55.769v0-130.977h1258.969l0.031 63.756c0 70.349-16.523 106.812-49.051 119.501l-7.215 2.359-5.152 1.152zM1115.161 881.156l-823.565 0.026c-59.363 0-84.832-20.297-88.457-69.953l-0.437-10.325-0.029-224.273h33.083l0.147 74.828c9.454 88.992 55.96 141.032 133.722 141.032l206.474-0.661c68.459-12.703 107.356-59.625 111.695-130.887l0.407-13.644-0.074-70.667h30.405l0.016 85.179c-0.684 82.948 48.92 130.68 133.922 130.68l192.9-0.17c74.328-6.919 119.185-48.734 124.205-117.065l0.472-13.121-0.010-85.504h34.895l0.077 224.273c0 54.582-24.808 78.713-89.849 80.253zM568.913 713.72h-199.288c-30.764 0-47.218-15.763-53.745-55.881l-1.428-10.542-0.005-70.667h294.912l0.074 70.667c0 38.546-11.491 57.266-33.576 64.567l-6.943 1.856zM1041.721 713.72h-189.25c-38.815 0-53.237-11.005-54.976-43.114l-0.177-8.473-0.015-85.504h293.967l0.010 85.504c0 31.32-11.421 45.611-41.027 50.485l-8.53 1.102z" />
<glyph unicode="&#xe909;" glyph-name="bike" horiz-adv-x="1566" d="M940.211 960l212.554-451.255c32.69 12.434 68.154 19.243 105.207 19.243 163.473 0 295.994-132.521 295.994-295.994s-132.521-295.994-295.994-295.994c-163.473 0-295.994 132.521-295.994 295.994 0 99.941 49.532 188.314 125.386 241.909l-61.739 131.071-179.834-411.46-31.833 0.053v-72.523l48.946-0.047c20.434 0 36.999-16.565 36.999-36.999 0-18.164-13.088-33.27-30.349-36.403l-6.651-0.596h-167.364c-20.434 0-36.999 16.565-36.999 36.999 0 18.164 13.088 33.27 30.349 36.403l6.651 0.596 44.389 0.047v72.523l-150.417-0.014c-18.845-145.312-143.075-257.552-293.52-257.552-163.473 0-295.994 132.521-295.994 295.994s132.521 295.994 295.994 295.994c33.806 0 66.288-5.667 96.548-16.104l65.878 132.355-52.615 131.742-78.232-0.056c-20.434 0-36.999 16.565-36.999 36.999 0 18.164 13.088 33.27 30.349 36.403l6.651 0.596h206.657c20.434 0 36.999-16.565 36.999-36.999 0-18.164-13.088-33.27-30.349-36.403l-6.651-0.596-48.734 0.056 38.486-96.371 466.526-0.005-97.274 206.461-116.252-0.064c-18.164 0-33.27 13.088-36.403 30.349l-0.596 6.651c0 18.164 13.088 33.27 30.349 36.403l6.651 0.596h163.228zM295.994 453.989c-122.605 0-221.995-99.391-221.995-221.995s99.391-221.995 221.995-221.995c109.471 0 200.435 79.237 218.667 183.486l-280.686 0.028 125.14 251.374c-20.007 5.923-41.193 9.102-63.121 9.102zM1257.973 453.989c-25.752 0-50.48-4.385-73.479-12.449l75.479-160.32c8.708-18.486 0.782-40.531-17.704-49.239-16.432-7.741-35.676-2.338-45.865 11.941l-3.373 5.762-73.446 155.902c-50.957-40.677-83.607-103.322-83.607-173.592 0-122.605 99.391-221.995 221.995-221.995s221.995 99.391 221.995 221.995c0 122.605-99.391 221.995-221.995 221.995zM425.597 412.25l-72.106-144.737 161.669 0.022c-9.564 59.435-42.723 110.978-89.562 144.714zM945.182 605.612h-423.345l-62.966-126.428c70.873-46.793 120.437-123.249 131.009-211.684l207.453 0.014 147.849 338.099z" />
<glyph unicode="&#xe90a;" glyph-name="binocular" horiz-adv-x="1365" d="M955.733 925.896c82.444 0 151.478-57.414 169.3-134.441v0l160.453-412.933c-0.322 0.285-0.645 0.57-0.967 0.854 12.169-32.788 18.753-68.183 18.753-105.117 0-167.948-136.149-304.097-304.097-304.097s-304.097 136.149-304.097 304.097c0 41.752 8.414 81.539 23.64 117.758l9.618 56.080h-153.463l9.68-56.080c15.226-36.218 23.64-76.005 23.64-117.758 0-167.948-136.149-304.097-304.097-304.097s-304.097 136.149-304.097 304.097c0 36.806 6.539 72.084 18.518 104.737l-0.732-0.474 160.453 412.933c17.822 77.026 86.856 134.441 169.3 134.441 85.797 0 157.071-62.179 171.218-143.932h265.758c14.147 81.753 85.421 143.932 171.218 143.932zM304.097 491.472c-119.963 0-217.212-97.249-217.212-217.212s97.249-217.212 217.212-217.212c119.963 0 217.212 97.249 217.212 217.212s-97.249 217.212-217.212 217.212zM999.176 491.472c-119.963 0-217.212-97.249-217.212-217.212s97.249-217.212 217.212-217.212c119.963 0 217.212 97.249 217.212 217.212s-97.249 217.212-217.212 217.212zM1012.46 419.884c73.529-23.616 120.852-76.541 138.285-153.927 5.273-23.406-9.427-46.655-32.833-51.928s-46.655 9.427-51.928 32.833c-10.751 47.723-36.22 76.207-80.094 90.299-22.843 7.337-35.414 31.803-28.077 54.646s31.803 35.414 54.646 28.077zM317.382 419.884c73.529-23.616 120.852-76.541 138.285-153.927 5.273-23.406-9.427-46.655-32.833-51.928s-46.655 9.427-51.928 32.833c-10.751 47.723-36.22 76.207-80.094 90.299-22.843 7.337-35.414 31.803-28.077 54.646s31.803 35.414 54.646 28.077zM347.539 839.011c-37.253 0-69.763-23.671-81.868-57.634l-6.446-21.391-81.339-208.976c38.444 17.561 81.185 27.346 126.211 27.346 62.768 0 121.095-19.017 169.532-51.604l-39.542 233.143c-3.596 41.116-35.858 73.738-76.283 78.513l-10.264 0.603zM955.733 839.011l-10.264-0.603c-40.425-4.775-72.687-37.397-76.283-78.513v0l-39.473-233.096c48.424 32.558 106.725 51.557 169.463 51.557 45.026 0 87.767-9.786 126.211-27.346l-81.339 208.976-6.446 21.391c-12.105 33.963-44.615 57.634-81.868 57.634v0zM770.321 695.154h-237.431l27.238-160.222h182.955l27.238 160.222z" />
<glyph unicode="&#xe90b;" glyph-name="book" horiz-adv-x="783" d="M635.349 960c14.785 0 27.082-10.544 29.632-24.448l0.485-5.358-0.047-165.597 61.83-0.053c14.632 0 26.802-10.544 29.326-24.448l0.48-5.358v-768.931c0-14.632-10.544-26.802-24.448-29.326l-5.358-0.48h-584.623l-7.456 0.948c-84.089 21.726-130.806 75.41-134.879 155.795l-0.291 11.665v565.1c0 16.461 13.345 29.806 29.806 29.806 14.632 0 26.802-10.544 29.326-24.448l0.48-5.358v-565.1c0-55.597 24.924-89.487 79.824-106.708l7.289-2.044h550.696v709.324l-232.526 0.044 0.037-335.49c0-21.003-20.847-34.857-39.681-28.141l-4.653 2.115-82.698 46.183-89.579-46.609c-18.315-9.513-39.921 2.024-43.136 21.44l-0.408 5.011-0.059 334.55c-116.896 3.673-182.876 39.743-187.814 113.416l-0.299 9.094c0 84.517 57.494 129.843 158.981 133.205l12.389 0.202h447.373zM405.263 705.024l-140.89-0.181-0.033-286.24 60.39 31.339c7.116 3.696 15.336 4.333 22.82 1.938l5.446-2.364 52.266-29.185v284.692zM605.184 900.427l-417.208-0.039c-79.567 0-111.758-23.558-111.758-73.795 0-43.613 52.707-67.265 175.456-62.73l15.067 0.68 338.443 0.053v135.831z" />
<glyph unicode="&#xe90c;" glyph-name="calendar" horiz-adv-x="967" d="M835.201 960c41.416 0 66.428-31.518 65.914-76.701 38.95-18.055 65.996-57.526 65.996-103.313v-682.667c0-62.838-50.94-113.778-113.778-113.778h-739.556c-62.838 0-113.778 50.94-113.778 113.778v682.667c0 48.937 30.896 90.658 74.246 106.722 9.342 47.563 37.954 73.292 78.289 73.292 38.131 0 62.357-26.716 65.559-66.215l85.246 0.023c10.753 43.021 38.473 66.192 76.751 66.192 38.131 0 62.357-26.716 65.559-66.215l85.246 0.023c10.753 43.021 38.473 66.192 76.751 66.192 38.131 0 62.357-26.716 65.559-66.215l85.246 0.023c10.753 43.021 38.473 66.192 76.751 66.192zM910.222 667.989h-853.333v-570.67c0-29.175 21.961-53.22 50.254-56.506l6.634-0.383h739.556c29.175 0 53.22 21.961 56.506 50.254l0.383 6.634v570.67zM256 296.431c31.419 0 56.889-25.47 56.889-56.889v-85.333c0-31.419-25.47-56.889-56.889-56.889h-85.333c-31.419 0-56.889 25.47-56.889 56.889v85.333c0 31.419 25.47 56.889 56.889 56.889h85.333zM796.444 296.431c31.419 0 56.889-25.47 56.889-56.889v-85.333c0-31.419-25.47-56.889-56.889-56.889h-85.333c-31.419 0-56.889 25.47-56.889 56.889v85.333c0 31.419 25.47 56.889 56.889 56.889h85.333zM523.378 296.431c31.419 0 56.889-25.47 56.889-56.889v-85.333c0-31.419-25.47-56.889-56.889-56.889h-85.333c-31.419 0-56.889 25.47-56.889 56.889v85.333c0 31.419 25.47 56.889 56.889 56.889h85.333zM256 239.542h-85.333v-85.333h85.333v85.333zM796.444 239.542h-85.333v-85.333h85.333v85.333zM523.378 239.542h-85.333v-85.333h85.333v85.333zM256 523.986c31.419 0 56.889-25.47 56.889-56.889v-85.333c0-31.419-25.47-56.889-56.889-56.889h-85.333c-31.419 0-56.889 25.47-56.889 56.889v85.333c0 31.419 25.47 56.889 56.889 56.889h85.333zM796.444 523.986c31.419 0 56.889-25.47 56.889-56.889v-85.333c0-31.419-25.47-56.889-56.889-56.889h-85.333c-31.419 0-56.889 25.47-56.889 56.889v85.333c0 31.419 25.47 56.889 56.889 56.889h85.333zM523.378 523.986c31.419 0 56.889-25.47 56.889-56.889v-85.333c0-31.419-25.47-56.889-56.889-56.889h-85.333c-31.419 0-56.889 25.47-56.889 56.889v85.333c0 31.419 25.47 56.889 56.889 56.889h85.333zM256 467.097h-85.333v-85.333h85.333v85.333zM796.444 467.097h-85.333v-85.333h85.333v85.333zM523.378 467.097h-85.333v-85.333h85.333v85.333zM753.778 643.694c15.709 0 28.444-12.735 28.444-28.444 0-13.964-10.062-25.578-23.331-27.986l-5.113-0.458h-540.444c-15.709 0-28.444 12.735-28.444 28.444 0 13.964 10.062 25.578 23.331 27.986l5.113 0.458h540.444zM177.060 836.883l-48.62-0.085c2.507-21.35 11.955-31.43 30.139-35.385 15.351-3.338 25.088-18.489 21.75-33.84s-18.489-25.088-33.84-21.75c-40.097 8.72-64.912 35.066-72.849 74.464-8.865-8.804-14.846-20.556-16.369-33.667l-0.383-6.634v-55.108h853.333v55.108c0 26.577-18.225 48.898-42.859 55.146-0.848-0.073-1.721 0.062-2.596 0.239l-2.275 0.771c-0.836 0.135-1.677 0.252-2.525 0.351l-6.634 0.383-42.226-0.078c2.507-21.35 11.955-31.43 30.139-35.385 15.351-3.338 25.088-18.489 21.75-33.84s-18.489-25.088-33.84-21.75c-45.472 9.889-71.29 42.446-75.128 91.002l-100.759-0.048c-4.935-1.947-10.471-2.538-16.058-1.407-1.755 0.355-3.439 0.865-5.041 1.512l-48.62-0.085c2.507-21.35 11.955-31.43 30.139-35.385 15.351-3.338 25.088-18.489 21.75-33.84s-18.489-25.088-33.84-21.75c-45.472 9.889-71.29 42.446-75.128 91.002l-100.759-0.048c-4.935-1.947-10.471-2.538-16.058-1.407-1.755 0.355-3.439 0.865-5.041 1.512l-48.62-0.085c2.507-21.35 11.955-31.43 30.139-35.385 15.351-3.338 25.088-18.489 21.75-33.84s-18.489-25.088-33.84-21.75c-45.472 9.889-71.29 42.446-75.128 91.002l-100.759-0.048c-4.935-1.947-10.471-2.538-16.058-1.407-1.755 0.355-3.439 0.865-5.041 1.512z" />
<glyph unicode="&#xe90d;" glyph-name="camera" horiz-adv-x="1293" d="M761.268 960l13.446-0.948c54.703-5.363 92.457-26.545 109.454-65.057 0.773-1.753 1.495-3.458 2.192-5.184v0l4.088-11.164 9.218-29.136c13.225-39.228 27.161-50.492 72.483-50.492v0l5.749 0.022 62.569 1.049 19.43-0.124 17.623-0.585c5.739-0.279 11.424-0.644 17.304-1.107 123.84-9.749 197.651-64.585 197.651-188.48v0l-0.064-424.459c11.173-161.929-69.455-248.335-231.737-248.335v0h-825.512c-158.901 0-240.728 81.225-234.868 234.835v0l0.671 11.645v426.314c0 123.987 74.569 178.745 199.697 188.482 5.943 0.462 11.69 0.828 17.49 1.106v0l17.815 0.585c3.080 0.057 6.236 0.096 9.499 0.116v0l21.124-0.083 42.033-0.808 24.376-0.035c42.224 1.48 54.473 15.318 67.891 58.127v0l6.82 21.457 4.139 11.172 2.22 5.189c17.155 38.422 55.354 59.645 111.012 65.005v0l12.99 0.894h223.196zM540.075 906.18l-10.404-0.769c-37.55-3.621-58.291-15.144-66.39-33.282-0.552-1.236-1.078-2.472-1.6-3.761v0l-3.226-8.82-9.152-28.527c-20.605-59.369-51.929-86.895-124.581-86.895v0l-6.181 0.022-40.585 0.776-31.499 0.265-17.395-0.312-16.161-0.764-8.059-0.568c-100.319-7.806-149.984-44.276-149.984-134.75v0l-0.040-427.773-0.69-12.671c-4.653-122.060 52.16-178.455 181.033-178.455v0h825.512c131.053 0 186.994 59.949 177.906 192.585v0 426.314c0 90.566-48.985 126.958-147.986 134.752-5.358 0.422-10.571 0.755-15.871 1.009v0l-16.395 0.531-18.315 0.106-67.864-1.066c-75.655 0-106.085 30.411-126.443 96.125v0l-6.070 19.39c-0.575 1.725-1.115 3.287-1.64 4.74v0l-3.134 7.855c-8.671 19.648-32.129 31.572-75.059 33.911v0l-219.726 0.035zM649.651 706.612c168.718 0 305.49-136.773 305.49-305.49s-136.773-305.49-305.49-305.49c-168.718 0-305.49 136.773-305.49 305.49s136.773 305.49 305.49 305.49zM649.651 652.717c-138.952 0-251.595-112.643-251.595-251.595s112.643-251.595 251.595-251.595c138.952 0 251.596 112.643 251.596 251.595s-112.643 251.595-251.596 251.595zM619.373 572.134c14.883 0 26.947-12.065 26.947-26.947s-12.065-26.947-26.947-26.947c-54.733 0-84.188-26.215-94.565-85.489-2.566-14.66-16.531-24.463-31.191-21.897s-24.463 16.531-21.897 31.191c14.783 84.446 66.068 130.090 147.652 130.090z" />
<glyph unicode="&#xe90e;" glyph-name="carte-fidelite" horiz-adv-x="1536" d="M1260.565 960c121.187 0 219.429-98.242 219.429-219.429v-585.143c0-121.187-98.242-219.429-219.429-219.429h-1024c-115.008 0-209.35 88.478-218.672 201.079l-0.756 0.064v603.429c0 121.187 98.242 219.429 219.429 219.429h1024zM1368.755 137.104h-1240.381c8.15-48.469 48.080-86.153 97.625-90.887l10.566-0.502h1024c54.35 0 99.469 39.519 108.191 91.389zM1370.279 283.429h-1243.429v-36.571h1243.429v36.571zM1260.565 850.286h-1024c-57.029 0-103.896-43.512-109.212-99.148l-0.502-10.566v-347.429h1243.429v347.429c0 57.029-43.512 103.896-99.148 109.212l-10.566 0.502zM500.378 803.882c13.127-12.248 15.219-31.894 5.844-46.48l-4.054-5.208-238.864-256c-13.779-14.768-36.921-15.569-51.689-1.79-13.127 12.248-15.219 31.894-5.844 46.48l4.054 5.208 238.864 256c13.779 14.768 36.921 15.569 51.689 1.79zM748.565 612.571c30.297 0 54.857-24.56 54.857-54.857 0-27.772-20.638-50.724-47.413-54.356l-7.444-0.501h-73.143c-30.297 0-54.857 24.56-54.857 54.857 0 27.772 20.638 50.724 47.413 54.356l7.444 0.501h73.143zM967.993 612.571c30.297 0 54.857-24.56 54.857-54.857 0-27.772-20.638-50.724-47.413-54.356l-7.444-0.501h-73.143c-30.297 0-54.857 24.56-54.857 54.857 0 27.772 20.638 50.724 47.413 54.356l7.444 0.501h73.143zM1187.422 612.571c30.297 0 54.857-24.56 54.857-54.857 0-27.772-20.638-50.724-47.413-54.356l-7.444-0.501h-73.143c-30.297 0-54.857 24.56-54.857 54.857 0 27.772 20.638 50.724 47.413 54.356l7.444 0.501h73.143zM1170.286 758.857c30.297 0 54.857-24.56 54.857-54.857 0-27.772-20.638-50.724-47.413-54.356l-7.444-0.501h-494.864c-30.297 0-54.857 24.56-54.857 54.857 0 27.772 20.638 50.724 47.413 54.356l7.444 0.501h494.864zM510.85 539.429c0-40.396-32.747-73.143-73.143-73.143s-73.143 32.747-73.143 73.143c0 40.396 32.747 73.143 73.143 73.143s73.143-32.747 73.143-73.143zM364.565 758.857c0-40.396-32.747-73.143-73.143-73.143s-73.143 32.747-73.143 73.143c0 40.396 32.747 73.143 73.143 73.143s73.143-32.747 73.143-73.143z" />
<glyph unicode="&#xe90f;" glyph-name="cd" d="M996.143 724.952c11.969 0 21.924-8.625 23.988-19.998l0.393-4.383v-637.619c0-64.633-50.3-117.518-113.889-121.645l-8.015-0.259h-591.81c-13.465 0-24.381 10.916-24.381 24.381 0 11.969 8.625 21.924 19.998 23.988l4.382 0.393h591.81c38.019 0 69.264 29.008 72.808 66.099l0.335 7.044v637.619c0 13.465 10.916 24.381 24.381 24.381zM780.19 960c53.861 0 97.524-43.663 97.524-97.524v-682.667c0-53.861-43.663-97.524-97.524-97.524h-682.667c-53.861 0-97.524 43.663-97.524 97.524v682.667c0 53.861 43.663 97.524 97.524 97.524h682.667zM780.19 911.238h-682.667c-25.007 0-45.617-18.824-48.434-43.075l-0.328-5.687v-682.667c0-25.007 18.824-45.617 43.075-48.434l5.687-0.328h682.667c25.007 0 45.617 18.824 48.434 43.075l0.328 5.687v682.667c0 25.007-18.824 45.617-43.075 48.434l-5.687 0.328zM438.857 813.714c161.583 0 292.571-130.989 292.571-292.571s-130.989-292.571-292.571-292.571c-161.583 0-292.571 130.989-292.571 292.571s130.989 292.571 292.571 292.571zM438.857 764.952c-134.652 0-243.81-109.157-243.81-243.81s109.157-243.81 243.81-243.81c134.652 0 243.81 109.157 243.81 243.81s-109.157 243.81-243.81 243.81z" />
<glyph unicode="&#xe910;" glyph-name="certification" horiz-adv-x="796" d="M349.621 945.857c11.191 19.239 39.145 18.752 49.659-0.866 35.322-65.911 141.338-101.693 320.693-101.693 15.709 0 28.444-12.735 28.444-28.444v0-452.819c0-97.77-28.432-154.282-94.063-222.462-1.274-1.323-2.639-2.693-4.095-4.107v0l-9.833-9.039-12.031-10.146-14.238-11.26-16.454-12.383-18.679-13.514-32.211-22.409-37.268-25-57.611-37.412-66.728-42.133c-9.476-5.915-21.538-5.736-30.834 0.458v0l-46.311 31.29c-44.889 30.776-85.513 60.013-121.88 87.72v0l-34.948 27.198c-16.765 13.345-32.466 26.308-47.105 38.892-68.687 59.044-103.727 134.437-104.125 224.307v0 452.819c0 15.709 12.735 28.444 28.444 28.444 176.141 0 282.378 35.857 321.176 102.559zM373.581 883.512c-57.168-60.687-159.447-91.895-305.923-96.502v0l-10.777-0.209 0.008-424.64c0.303-68.321 24.519-124.937 73.455-171.473v0l10.865-9.818c14.186-12.194 29.443-24.788 45.772-37.779v0l34.084-26.512c5.918-4.507 11.956-9.058 18.112-13.653v0l38.363-28.099c6.631-4.771 13.382-9.586 20.251-14.445v0l42.638-29.68 30.195-20.49 33.822 21.293 44.42 28.505 39.444 25.905 34.437 23.278 20.161 14.045 26.024 18.837 14.524 11.059 12.254 9.85 9.974 8.633 7.686 7.408c56.297 58.485 78.16 101.939 78.16 183.010v0l-0.052 424.71-11.473 0.267c-142.686 4.417-242.805 33.241-299.202 88.939v0zM615.923 662.935c9.089-12.813 6.069-30.569-6.744-39.657-108.892-77.237-192.383-181.994-250.682-314.795-7.578-17.263-29.137-22.15-43.363-11.149l-3.682 3.397-134.611 147.33c-10.596 11.598-9.785 29.589 1.813 40.186 10.309 9.419 25.67 9.824 36.399 1.653l3.787-3.466 105.874-115.888 3.503 7.077c57.087 112.981 133.368 205.714 228.724 277.896l19.326 14.162c12.813 9.089 30.569 6.069 39.657-6.744z" />
<glyph unicode="&#xe911;" glyph-name="checkCircle" d="M486.4 960c268.631 0 486.4-217.769 486.4-486.4s-217.769-486.4-486.4-486.4c-268.631 0-486.4 217.769-486.4 486.4s217.769 486.4 486.4 486.4zM486.4 883.2c-226.216 0-409.6-183.384-409.6-409.6s183.384-409.6 409.6-409.6c226.216 0 409.6 183.384 409.6 409.6s-183.384 409.6-409.6 409.6zM705.192 672.002l2.359-0.068c0.537-0.035 1.073-0.084 1.609-0.146 6.565-0.6 13.037-2.928 18.755-7.058 13.43-9.7 18.892-26.673 14.165-42.363l-2.255-5.807-3.264-5.443-273.594-378.813c-12.068-16.709-34.7-20.542-51.678-9.875l-5.428 4.095-4.65 5.098-169.438 224c-12.794 16.914-9.454 40.997 7.46 53.791 5.736 4.339 12.343 6.84 19.097 7.535 3.656 0.448 7.338 0.279 10.896-0.496 4.895-0.845 9.663-2.703 14.021-5.502l5.531-4.279 4.247-4.717 138.014-182.523 243.261 336.654c6.829 9.456 17.164 14.882 27.942 15.785 0.44 0.018 0.91 0.055 1.381 0.082l1.567 0.052z" />
<glyph unicode="&#xe912;" glyph-name="chevronBottom" horiz-adv-x="1920" d="M76.236 691.962c8.195-17.276 20.156-32.496 35.006-44.542l767.927-618.182c22.901-18.825 51.627-29.116 81.272-29.116s58.371 10.291 81.272 29.116l767.927 639.94c26.137 21.724 42.574 52.942 45.694 86.786s-7.331 67.54-29.056 93.677c-21.724 26.137-52.942 42.574-86.786 45.694s-67.54-7.331-93.677-29.056l-686.015-572.106-686.015 552.908c-18.787 15.651-41.663 25.592-65.923 28.649s-48.888-0.901-70.969-11.403c-22.081-10.502-40.692-27.11-53.631-47.858s-19.662-44.768-19.386-69.218c-0.056-19.121 4.164-38.013 12.359-55.289z" />
<glyph unicode="&#xe913;" glyph-name="chevronLeft" horiz-adv-x="512" d="M395.337-56.938c-9.872 4.683-18.569 11.518-25.452 20.003l-353.247 438.816c-10.757 13.086-16.638 29.501-16.638 46.441s5.881 33.355 16.638 46.441l365.68 438.816c12.414 14.936 30.253 24.328 49.592 26.111s38.594-4.189 53.53-16.603c14.936-12.414 24.328-30.253 26.111-49.592s-4.189-38.594-16.603-53.53l-326.918-392.009 315.947-392.009c8.943-10.735 14.624-23.808 16.371-37.67s-0.515-27.936-6.516-40.554c-6.001-12.618-15.491-23.253-27.347-30.646s-25.582-11.236-39.553-11.078c-10.926-0.032-21.722 2.379-31.594 7.062z" />
<glyph unicode="&#xe914;" glyph-name="chevronRight" horiz-adv-x="512" d="M116.523-56.938c9.872 4.683 18.569 11.518 25.452 20.003l353.247 438.816c10.757 13.086 16.638 29.501 16.638 46.441s-5.881 33.355-16.638 46.441l-365.68 438.816c-12.414 14.936-30.253 24.328-49.592 26.111s-38.594-4.189-53.53-16.603c-14.936-12.414-24.328-30.253-26.111-49.592s4.189-38.594 16.603-53.53l326.918-392.009-315.947-392.009c-8.943-10.735-14.624-23.808-16.371-37.67s0.515-27.936 6.516-40.554c6.001-12.618 15.491-23.253 27.347-30.646s25.582-11.236 39.553-11.078c10.926-0.032 21.722 2.379 31.594 7.062z" />
<glyph unicode="&#xe915;" glyph-name="chevronTop" horiz-adv-x="1920" d="M76.236 204.038c8.195 17.276 20.156 32.496 35.006 44.542l767.927 618.182c22.901 18.825 51.627 29.116 81.272 29.116s58.371-10.291 81.272-29.116l767.927-639.94c26.137-21.724 42.574-52.942 45.694-86.786s-7.331-67.54-29.056-93.677c-21.724-26.137-52.942-42.574-86.786-45.694s-67.54 7.331-93.677 29.056l-686.015 572.106-686.015-552.908c-18.787-15.651-41.663-25.592-65.923-28.649s-48.888 0.901-70.969 11.403c-22.081 10.502-40.692 27.11-53.631 47.858s-19.662 44.768-19.386 69.218c-0.056 19.121 4.164 38.013 12.359 55.289z" />
<glyph unicode="&#xe916;" glyph-name="close" d="M978.928 947.503c14.811-14.811 16.457-37.802 4.937-54.431l-4.937-5.909-422.384-422.267 423.208-421.431c16.697-16.628 16.753-43.643 0.129-60.343-14.784-14.838-37.771-16.532-54.424-5.047l-5.919 4.925-423.325 421.565-422.382-422.499c-16.662-16.662-43.677-16.662-60.34 0-14.811 14.811-16.457 37.802-4.937 54.431l4.937 5.909 422.306 422.319-423.237 421.486c-16.697 16.628-16.753 43.643-0.129 60.343 14.784 14.838 37.771 16.532 54.424 5.047l5.919-4.925 423.354-421.621 422.46 422.447c16.662 16.662 43.677 16.662 60.34 0z" />
<glyph unicode="&#xe917;" glyph-name="closeCircle" d="M512 960c282.77 0 512-229.23 512-512s-229.23-512-512-512c-282.77 0-512 229.23-512 512s229.23 512 512 512zM512 891.733c-245.067 0-443.733-198.666-443.733-443.733s198.666-443.733 443.733-443.733c245.067 0 443.733 198.666 443.733 443.733s-198.666 443.733-443.733 443.733zM672.109 608.109c12.797-12.797 13.961-32.823 3.49-46.934l-3.49-4.043-109.137-109.132 109.137-109.132c14.077-14.077 14.077-36.9 0-50.977-12.797-12.797-32.823-13.961-46.934-3.49l-4.043 3.49-109.132 109.137-109.132-109.137c-14.077-14.077-36.9-14.077-50.977 0-12.797 12.797-13.961 32.823-3.49 46.934l3.49 4.043 109.137 109.132-109.137 109.132c-14.077 14.077-14.077 36.9 0 50.977 12.797 12.797 32.823 13.961 46.934 3.49l4.043-3.49 109.132-109.137 109.132 109.137c14.077 14.077 36.9 14.077 50.977 0z" />
<glyph unicode="&#xe918;" glyph-name="cookies" horiz-adv-x="1084" d="M514.684 959.957c10.026 0.577 19.464-4.759 24.138-13.647 13.984-26.592 38.162-54.584 72.71-83.653 30.192-25.404 67.209-32.105 113.892-19.648 20.004 5.338 37.744-14.036 30.669-33.494-14.952-41.12-6.611-75.943 26.533-108.929 32.908-32.751 74.943-40.518 130.338-22.651 19.658 6.34 38.348-12.005 32.375-31.777-10.872-35.99-5.147-70.193 17.918-104.689 1.699-2.541 3.366-4.985 4.998-7.332v0l9.321-12.919 8.234-10.586 9.828-11.489 4.545-4.722 2.681-2.364 0.572-0.296c15.57 0.009 27.545-13.762 25.373-29.18-30.477-216.388-113.72-369.877-250.321-458.398-183.716-119.054-459.761-72.615-612.401 65.217-162.231 146.492-226.271 409.985-97.662 626.13 97.828 164.414 247.481 252.983 446.26 264.428zM502.021 907.717l-2.434-0.169c-172.863-14.573-301.1-93.59-387.148-238.207-115.053-193.364-57.375-430.682 87.973-561.928 136.607-123.354 387.669-165.59 550.224-60.249 114.408 74.14 188.192 200.751 220.873 381.502v0l3.651 21.534-2.827 1.896c-13.99 10.285-28.569 27.45-45.281 51.545v0l-6.37 9.361c-22.43 33.545-33.11 68.648-31.768 104.55v0l0.151 2.226-7.259-1.044c-48.984-5.706-91.945 6.891-127.288 38.034v0l-8.020 7.516c-35.991 35.819-52.266 76.837-48.149 121.060v0l0.139 1.143-4.957-0.442c-39.91-2.303-75.774 7.933-106.671 30.856v0l-8.302 6.566c-30.535 25.693-54.509 51.302-71.84 76.978v0l-4.696 7.272zM644.198 139.623c14.143 0 25.608-11.465 25.608-25.608s-11.465-25.608-25.608-25.608c-14.143 0-25.608 11.465-25.608 25.608s11.465 25.608 25.608 25.608zM413.723 344.489c56.572 0 102.433-45.861 102.433-102.433s-45.861-102.433-102.433-102.433c-56.572 0-102.433 45.861-102.433 102.433s45.861 102.433 102.433 102.433zM413.723 293.272c-28.286 0-51.217-22.93-51.217-51.217s22.93-51.217 51.217-51.217c28.286 0 51.217 22.93 51.217 51.217s-22.93 51.217-51.217 51.217zM772.239 446.922c56.572 0 102.433-45.861 102.433-102.433s-45.861-102.433-102.433-102.433c-56.572 0-102.433 45.861-102.433 102.433s45.861 102.433 102.433 102.433zM772.239 395.705c-28.286 0-51.217-22.93-51.217-51.217s22.93-51.217 51.217-51.217c28.286 0 51.217 22.93 51.217 51.217s-22.93 51.217-51.217 51.217zM183.249 395.705c14.143 0 25.608-11.465 25.608-25.608s-11.465-25.608-25.608-25.608c-14.143 0-25.608 11.465-25.608 25.608s11.465 25.608 25.608 25.608zM541.765 498.138c14.143 0 25.608-11.465 25.608-25.608s-11.465-25.608-25.608-25.608c-14.143 0-25.608 11.465-25.608 25.608s11.465 25.608 25.608 25.608zM311.29 703.004c56.572 0 102.433-45.861 102.433-102.433s-45.861-102.433-102.433-102.433c-56.572 0-102.433 45.861-102.433 102.433s45.861 102.433 102.433 102.433zM797.847 549.355c14.143 0 25.608-11.465 25.608-25.608s-11.465-25.608-25.608-25.608c-14.143 0-25.608 11.465-25.608 25.608s11.465 25.608 25.608 25.608zM311.29 651.788c-28.286 0-51.217-22.93-51.217-51.217s22.93-51.217 51.217-51.217c28.286 0 51.217 22.93 51.217 51.217s-22.93 51.217-51.217 51.217zM439.331 805.437c14.143 0 25.608-11.465 25.608-25.608s-11.465-25.608-25.608-25.608c-14.143 0-25.608 11.465-25.608 25.608s11.465 25.608 25.608 25.608z" />
<glyph unicode="&#xe919;" glyph-name="dashbord" horiz-adv-x="1088" d="M1024 960c35.346 0 64-28.654 64-64v-691.2c0-35.346-28.654-64-64-64l-337.356-0.16c4.729-28.108 12.62-48.467 22.979-61.085v0l7.628-10.178c18.897-27.738 26.234-60.192 21.88-95.878v0l-3.432-28.124h-382.552l-3.849 27.577c-6.974 49.965 3.961 88.931 35.818 112.156 7.96 5.803 14.689 24.29 17.488 55.534l-338.605 0.159c-35.346 0-64 28.654-64 64v691.2c0 35.346 28.654 64 64 64h960zM622.272 138.176h-155.712l-0.756-8.937c-4.458-41.711-15.94-71.928-36.531-90.594v0l-6.453-5.253c-5.433-3.961-9.2-10.541-10.785-20.554v0l-0.387-3.43h262.976l-1.966 7.368c-1.793 5.303-4.241 10.331-7.347 15.132v0l-11.962 16.138c-15.151 22.217-25.181 51.308-30.667 87.266v0l-0.41 2.865zM1024 269.44h-960v-64.64h960v64.64zM1024 896h-960v-562.56h960v562.56zM880.011 496.894c17.673 0 32-14.327 32-32 0-15.709-11.32-28.775-26.248-31.484l-5.752-0.516h-693.196c-17.673 0-32 14.327-32 32 0 15.709 11.32 28.775 26.248 31.484l5.752 0.516h693.196zM890.75 787.992c15.709 0 28.775-11.32 31.484-26.248l0.516-5.752v-85.209c0-17.673-14.327-32-32-32-15.709 0-28.775 11.32-31.484 26.248l-0.516 5.752-0.062 20.097-126.95-122.884c-12.535-12.129-32.061-11.782-44.202-0.302l-4.179 4.824-44.574 63.065-101.517-89.246c-11.060-9.72-27.055-10.492-38.882-2.59l-4.787 3.916-83.807 83.247-207.002-119.317c-13.612-7.842-30.584-4.556-40.384 7.026l-3.318 4.727c-7.842 13.612-4.556 30.584 7.026 40.384l4.727 3.318 228.179 131.46c10.716 6.174 23.838 5.546 33.817-1.16l4.702-3.857 79.902-79.349 105.816 92.967c12.691 11.153 31.486 10.346 43.212-0.871l4.041-4.691 43.539-61.613 87.168 84.352-2.81 0.22c-13.062 2.371-23.362 12.67-25.732 25.732l-0.516 5.752c0 15.709 11.32 28.775 26.248 31.484l5.752 0.516h86.592z" />
<glyph unicode="&#xe91a;" glyph-name="dekstop" horiz-adv-x="1152" d="M385.117 85.108c7.39 5.387 13.718 21.705 16.826 49.011l-334.743 0.281c-34.639 0-63.157 26.209-66.806 59.878l-0.394 7.322v694.4c0 35.346 28.654 64 64 64h963.2c34.639 0 63.157-26.209 66.806-59.878l0.394-7.322v-691.2c0-34.639-26.209-63.157-59.877-66.806l-7.322-0.394-334.202 3.571c3.278-19.48 8.114-35.324 14.272-47.202l3.851-6.648 11.973-16.143c14.777-21.69 22.684-46.256 23.564-73.081l-0.054-11.633-1.098-13.354-6.608-30.937-385.721 2.758-3.849 27.577c-1.123 8.044-1.784 15.783-1.982 23.206l0.021 13.212c1.117 34.335 13.243 61.515 37.748 79.38zM739.132-26.501l-3.432-28.124h-379.352l379.375-2.812 3.419 27.998 1.077 13.098-0.003 3.069-1.085-13.228zM472.949 134.706l-0.763-9.007c-3.593-33.622-11.663-59.414-24.906-78.214l-5.994-7.632-6.792-6.889-6.588-5.357c-2.575-1.877-4.68-4.423-6.291-7.661l-2.043-5.38-1.268-5.157h255.36l-0.767 2.953-3.007 7.395-3.95 7.045-12.035 16.241c-10.953 16.060-19.329 35.681-25.271 59.052l-3.274 14.474-2.652 15.336-149.761 2.802zM67.328 140.8l334.941-3.664c0.118 1.15 0.23 2.319 0.336 3.506l-335.277 0.159zM70.4 266.24l-3.2-61.44h956.8l-0.011 58.304-953.589 3.136zM64 896v-562.56l3.2 562.56h-3.2zM70.4 892.8l-3.2-559.36h956.8l-0.011 556.16-953.589 3.2z" />
<glyph unicode="&#xe91b;" glyph-name="delivery" horiz-adv-x="1536" d="M853.333 960c47.128 0 85.333-38.205 85.333-85.333v-46.763l305.865-0.039c15.749 0 29.982-8.642 37.38-22.090l3.105-7.107 78.952-237.516 119.648-77.31c10.141-6.549 16.936-17.013 18.919-28.703l0.601-7.139v-299.812c0-20.946-15.093-38.367-34.997-41.979l-7.669-0.687-102.025 0.014c4.466-13.024 6.889-26.997 6.889-41.535 0-70.692-57.308-128-128-128s-128 57.308-128 128c0 14.538 2.424 28.511 6.889 41.535l-214.817-0.014-0.030 1.146-481.984-0.025c4.711-13.338 7.275-27.691 7.275-42.642 0-70.692-57.308-128-128-128s-128 57.308-128 128c0 14.951 2.563 29.304 7.275 42.642l-92.608 0.025c-47.128 0-85.333 38.205-85.333 85.333v682.667c0 47.128 38.205 85.333 85.333 85.333h768zM298.667 106.667c-23.564 0-42.667-19.103-42.667-42.667s19.103-42.667 42.667-42.667c23.564 0 42.667 19.103 42.667 42.667s-19.103 42.667-42.667 42.667zM1246.573 105.664h-18.479c-19.122-4.222-33.427-21.272-33.427-41.664 0-23.564 19.103-42.667 42.667-42.667s42.667 19.103 42.667 42.667c0 20.391-14.305 37.442-33.427 41.664zM1213.696 742.571h-275.029v-551.68l282.301 0.073c5.359 0.684 10.821 1.036 16.365 1.036s11.007-0.353 16.365-1.036l164.029-0.073v233.899l-79.579 51.261c-0.97-0.248-1.953-0.464-2.948-0.644l-7.669-0.687h-234.917c-20.946 0-38.367 15.093-41.979 34.997l-0.687 7.669v162.792c0 20.946 15.093 38.367 34.997 41.979l7.669 0.687 127.567 0.015-6.485 19.712zM853.333 874.667h-768v-682.667h768v682.667zM1248.597 637.525h-113.323v-77.397h139.093l-25.771 77.397z" />
<glyph unicode="&#xe91c;" glyph-name="document" horiz-adv-x="843" d="M722.824 960c66.534 0 120.471-53.937 120.471-120.471v-783.059c0-66.534-53.937-120.471-120.471-120.471h-602.353c-66.534 0-120.471 53.937-120.471 120.471v783.059c0 66.534 53.937 120.471 120.471 120.471h602.353zM722.824 899.765h-602.353c-30.891 0-56.351-23.253-59.83-53.211l-0.405-7.025v-783.059c0-30.891 23.253-56.351 53.211-59.83l7.025-0.405h602.353c30.891 0 56.351 23.253 59.83 53.211l0.405 7.025v783.059c0 30.891-23.253 56.351-53.211 59.83l-7.025 0.405zM691.118 145.038c16.633 0 30.118-13.484 30.118-30.118 0-14.785-10.654-27.082-24.704-29.632l-5.414-0.485h-542.118c-16.634 0-30.118 13.484-30.118 30.118 0 14.785 10.654 27.082 24.704 29.632l5.414 0.485h542.118zM691.118 282.718c16.633 0 30.118-13.484 30.118-30.118 0-14.785-10.654-27.082-24.704-29.632l-5.414-0.485h-542.118c-16.634 0-30.118 13.484-30.118 30.118 0 14.785 10.654 27.082 24.704 29.632l5.414 0.485h542.118zM691.118 420.399c16.633 0 30.118-13.484 30.118-30.118 0-14.785-10.654-27.082-24.704-29.632l-5.414-0.485h-542.118c-16.634 0-30.118 13.484-30.118 30.118 0 14.785 10.654 27.082 24.704 29.632l5.414 0.485h542.118zM691.118 558.080c16.633 0 30.118-13.484 30.118-30.118 0-14.785-10.654-27.082-24.704-29.632l-5.414-0.485h-542.118c-16.634 0-30.118 13.484-30.118 30.118 0 14.785 10.654 27.082 24.704 29.632l5.414 0.485h542.118zM691.118 682.853c16.633 0 30.118-13.484 30.118-30.118 0-14.785-10.654-27.082-24.704-29.632l-5.414-0.485h-163.088c-16.633 0-30.118 13.484-30.118 30.118 0 14.785 10.654 27.082 24.704 29.632l5.414 0.485h163.088zM691.118 803.324c16.633 0 30.118-13.484 30.118-30.118 0-14.785-10.654-27.082-24.704-29.632l-5.414-0.485h-163.088c-16.633 0-30.118 13.484-30.118 30.118 0 14.785 10.654 27.082 24.704 29.632l5.414 0.485h163.088z" />
<glyph unicode="&#xe91d;" glyph-name="email" horiz-adv-x="1536" d="M1365.333 960c94.257 0 170.667-76.41 170.667-170.667v-682.667c0-94.257-76.41-170.667-170.667-170.667h-1194.667c-94.257 0-170.667 76.41-170.667 170.667v682.667c0 94.257 76.41 170.667 170.667 170.667h1194.667zM85.333 668.501v-561.835c0-43.762 32.942-79.83 75.382-84.759l9.952-0.574h1194.667c43.762 0 79.83 32.942 84.759 75.382l0.574 9.952v555.349l-663.328-337.382c-9.806-4.986-21.053-5.947-31.41-2.892l-7.565 3.044-663.031 343.714zM1365.333 874.667h-1194.667c-43.762 0-79.83-32.942-84.759-75.382l-0.574-9.952v-24.747l682.837-353.963 682.496 347.136v31.573c0 43.762-32.942 79.83-75.382 84.759l-9.952 0.574z" />
<glyph unicode="&#xe91e;" glyph-name="estimate" horiz-adv-x="922" d="M780.19 960c53.861 0 97.524-43.663 97.524-97.524v-828.952c0-53.861-43.663-97.524-97.524-97.524h-682.667c-53.861 0-97.524 43.663-97.524 97.524v828.952c0 53.861 43.663 97.524 97.524 97.524h682.667zM780.19 911.238h-682.667c-25.007 0-45.617-18.824-48.434-43.075l-0.328-5.687v-828.952c0-25.007 18.824-45.617 43.075-48.434l5.687-0.328h682.667c25.007 0 45.617 18.824 48.434 43.075l0.328 5.687v828.952c0 25.007-18.824 45.617-43.075 48.434l-5.687 0.328zM780.19 374.857v-341.333h-97.524v341.333h97.524zM243.81 179.81v-146.286h-146.286v146.286h146.286zM438.857 179.81v-146.286h-146.286v146.286h146.286zM633.905 179.81v-146.286h-146.286v146.286h146.286zM195.048 131.048h-48.762v-48.762h48.762v48.762zM390.095 131.048h-48.762v-48.762h48.762v48.762zM585.143 131.048h-48.762v-48.762h48.762v48.762zM243.81 374.857v-146.286h-146.286v146.286h146.286zM438.857 374.857v-146.286h-146.286v146.286h146.286zM633.905 374.857v-146.286h-146.286v146.286h146.286zM195.048 326.095h-48.762v-48.762h48.762v48.762zM390.095 326.095h-48.762v-48.762h48.762v48.762zM585.143 326.095h-48.762v-48.762h48.762v48.762zM780.19 472.381v-51.2h-97.524v51.2h97.524zM243.81 569.905v-146.286h-146.286v146.286h146.286zM438.857 569.905v-146.286h-146.286v146.286h146.286zM633.905 569.905v-146.286h-146.286v146.286h146.286zM195.048 521.143h-48.762v-48.762h48.762v48.762zM390.095 521.143h-48.762v-48.762h48.762v48.762zM585.143 521.143h-48.762v-48.762h48.762v48.762zM780.19 569.905v-51.2h-97.524v51.2h97.524zM780.19 862.476v-243.81h-682.667v243.81h682.667zM731.429 813.714h-585.143v-146.286h585.143v146.286z" />
<glyph unicode="&#xe91f;" glyph-name="euro" d="M512 960c282.77 0 512-229.23 512-512s-229.23-512-512-512c-282.77 0-512 229.23-512 512s229.23 512 512 512zM512 908.8c-254.493 0-460.8-206.307-460.8-460.8s206.307-460.8 460.8-460.8c254.493 0 460.8 206.307 460.8 460.8s-206.307 460.8-460.8 460.8zM721.576 756.178c156.904-119.616 189.987-279.701 118.566-463.667-72.793-187.503-318.618-279.56-507.981-160.871-11.98 7.509-15.604 23.307-8.096 35.287s23.307 15.604 35.287 8.096c161.303-101.101 371.575-22.358 433.060 136.018 63.643 163.934 35.605 299.609-101.878 404.42-143.573 109.453-388.446 44.552-461.875-117.58-49.265-108.778-49.265-202.253-1.307-283.037 7.217-12.158 3.213-27.864-8.945-35.082s-27.864-3.213-35.082 8.945c-57.088 96.162-57.088 207.131-1.307 330.297 86.885 191.842 369.568 266.764 539.556 137.174zM525.517 579.072c35.499 0 64.444-7.373 86.835-22.118 2.458-1.638 3.686-3.413 3.686-5.325 0-1.638-0.683-3.55-2.048-5.734v0l-11.469-19.661-1.593-2.048c-1.032-1.092-2.002-1.638-2.913-1.638-1.092 0-3.004 0.683-5.734 2.048-9.011 4.915-18.091 8.738-27.238 11.469s-20.412 4.096-33.792 4.096c-19.388 0-34.748-4.71-46.080-14.131s-19.183-23.825-23.552-43.213v0h56.525l3.571-0.166c3.251-0.333 5.542-1.165 6.874-2.496 1.775-1.775 2.662-5.257 2.662-10.445v0-7.373l-0.166-3.558c-0.333-3.226-1.165-5.453-2.496-6.682-1.775-1.638-5.257-2.458-10.445-2.458v0h-62.259l-0.179-2.995c-0.102-2.219-0.171-4.881-0.205-7.987v0-10.317c0.051-4.915 0.179-8.602 0.384-11.059v0h62.259l3.571-0.179c3.251-0.358 5.542-1.254 6.874-2.688 1.775-1.911 2.662-5.325 2.662-10.24v0-7.782l-0.166-3.558c-0.333-3.226-1.165-5.453-2.496-6.682-1.775-1.638-5.257-2.458-10.445-2.458v0h-54.886l2.038-7.843c9.798-32.728 32.193-49.091 67.185-49.091 14.746 0 26.897 1.297 36.454 3.891s18.978 6.622 28.262 12.083c2.731 1.365 4.642 2.048 5.734 2.048 1.638 0 3.277-1.229 4.915-3.686v0l11.469-19.661 1.138-2.048c0.607-1.274 0.91-2.367 0.91-3.277 0-1.911-1.365-3.823-4.096-5.734-11.196-7.646-23.962-13.244-38.298-16.794s-31.744-5.325-52.224-5.325c-66.355 0-105.95 31.812-118.784 95.437v0h-24.986l-3.558 0.154c-3.226 0.307-5.453 1.075-6.682 2.304-1.638 1.638-2.458 5.052-2.458 10.24v0 7.782l0.166 3.405c0.333 3.123 1.165 5.402 2.496 6.835 1.775 1.911 5.12 2.867 10.035 2.867v0h21.299l-0.358 2.867c-0.307 3.277-0.461 7.782-0.461 13.517 0 7.1 0.273 12.425 0.819 15.974v0h-21.299l-3.558 0.154c-3.226 0.307-5.453 1.075-6.682 2.304-1.638 1.638-2.458 5.052-2.458 10.24v0 7.373l0.154 3.571c0.307 3.251 1.075 5.542 2.304 6.874 1.638 1.775 5.052 2.662 10.24 2.662v0h24.986l2.205 9.866c14.555 57.594 53.005 86.39 115.351 86.39z" />
<glyph unicode="&#xe920;" glyph-name="eyes" horiz-adv-x="1497" d="M724.754 960c296.698 0 531.782-146.816 701.724-436.251l25.416-44.896-24.807-44.706c-165.062-286.28-400.081-431.426-701.166-431.426s-536.104 145.146-701.165 431.426l-14.383 25.626-10.374 18.989 10.463 18.94c169.417 306.661 408.817 462.298 714.291 462.298zM977.573 835.692l6.318-5.609c77.987-71.961 126.832-175.035 126.832-289.516 0-217.515-176.331-393.846-393.846-393.846s-393.846 176.331-393.846 393.846c0 110.914 45.848 211.119 119.626 282.698-136.843-61.936-252.437-173.642-347.579-336.107l-4.966-8.597 3.406-5.98c141.892-245.679 334.901-374.443 582.216-389.579l24.913-1.135 25.275-0.378c271.542 0 481.053 129.034 632.404 391.092l3.277 5.915-3.583 6.279c-103.107 175.332-229.587 291.904-380.448 350.916zM716.877 855.644c-174.012 0-315.077-141.065-315.077-315.077s141.065-315.077 315.077-315.077c174.012 0 315.077 141.065 315.077 315.077s-141.065 315.077-315.077 315.077zM716.877 705.983c91.356 0 165.415-74.059 165.415-165.415s-74.059-165.415-165.415-165.415c-91.356 0-165.415 74.059-165.415 165.415s74.059 165.415 165.415 165.415z" />
<glyph unicode="&#xe921;" glyph-name="facebook" horiz-adv-x="512" d="M0 621.369h100.546v102.855c0 45.397 1.081 115.371 32.372 158.72 32.993 45.881 78.254 77.056 156.129 77.056 126.865 0 180.286-19.029 180.286-19.029l-25.157-156.871c0 0-41.883 12.8-80.983 12.8-39.127 0-74.147-14.763-74.147-55.922v-119.609h160.372l-11.187-153.202h-149.185v-532.167h-188.501v532.167h-100.546v153.202z" />
<glyph unicode="&#xe922;" glyph-name="facebookSquare" d="M810.667 960c117.821 0 213.333-95.513 213.333-213.333v-597.333c0-117.821-95.513-213.333-213.333-213.333h-597.333c-117.821 0-213.333 95.513-213.333 213.333v597.333c0 117.821 95.513 213.333 213.333 213.333h597.333zM810.667 917.333h-597.333c-92.478 0-167.777-73.554-170.585-165.351l-0.081-5.316v-597.333c0-92.478 73.554-167.777 165.351-170.585l5.316-0.081h597.333c92.478 0 167.777 73.554 170.585 165.351l0.081 5.316v597.333c0 92.478-73.554 167.777-165.351 170.585l-5.316 0.081zM545.651 675.556c56.385 0 80.127-8.457 80.127-8.457l-11.181-69.72c0 0-18.615 5.689-35.992 5.689-17.39 0-32.954-6.561-32.954-24.854v-53.16h71.276l-4.972-68.090h-66.304v-236.519h-83.778v236.519h-44.687v68.090h44.687v45.713c0 20.177 0.48 51.276 14.387 70.542 14.664 20.391 34.779 34.247 69.391 34.247z" />
<glyph unicode="&#xe923;" glyph-name="fridge" horiz-adv-x="666" d="M568.889 960c41.892 0 75.852-33.96 75.852-75.852v-872.296c0-41.892-33.96-75.852-75.852-75.852h-493.037c-41.892 0-75.852 33.96-75.852 75.852v872.296c0 41.892 33.96 75.852 75.852 75.852h493.037zM606.815 332.874h-568.889v-321.022c0-19.45 14.641-35.48 33.503-37.671l4.423-0.255h493.037c19.45 0 35.48 14.641 37.671 33.503l0.255 4.423v321.022zM506.296 263.741c9.309 0 17.052-6.708 18.657-15.554l0.306-3.409v-135.926c0-9.309-6.708-17.052-15.554-18.657l-3.409-0.306h-49.519c-10.473 0-18.963 8.49-18.963 18.963 0 9.309 6.708 17.052 15.554 18.657l3.409 0.306 30.532 0.015 0.023 116.948c0 9.309 6.708 17.052 15.554 18.657l3.409 0.306zM568.889 922.074h-493.037c-19.45 0-35.48-14.641-37.671-33.503l-0.255-4.423v-500.074h568.889v500.074c0 19.45-14.641 35.48-33.503 37.671l-4.423 0.255zM506.296 643c9.309 0 17.052-6.708 18.657-15.554l0.306-3.409v-135.926c0-9.309-6.708-17.052-15.554-18.657l-3.409-0.306h-49.519c-10.473 0-18.963 8.49-18.963 18.963 0 9.309 6.708 17.052 15.554 18.657l3.409 0.306 30.532 0.015 0.023 116.948c0 9.309 6.708 17.052 15.554 18.657l3.409 0.306z" />
<glyph unicode="&#xe924;" glyph-name="gardenChair" horiz-adv-x="1600" d="M282.882 930.943l65.35-65.791 21.616-21.918c49.065-49.79 49.856-111.997 6.974-178.63l123.535-122.461 658.753-0.050c6.744 0 13.271-2.129 18.679-6.018v0l3.833-3.24 356.922-353.312c12.074-11.952 12.704-31.257 1.433-43.97v0l-69.828-78.766c-12.109-13.659-33.171-14.438-46.256-1.711v0l-246.164 239.387 14.982-42.419c14.421-41.997 26.667-80.635 36.74-115.926 26.419-92.557-15.136-153.973-115.947-171.321l-11.895-1.805h-631.742c-113.901 0-162.953 68.462-137.628 187.366l2.885 12.48 76.972 234.282-402.378 390.335c-11.56 11.215-12.801 28.965-3.753 41.584l3.875 4.469 77.25 74.156c61.801 59.326 128.712 69.799 195.792 23.28zM1079.616 374.080h-607.68l-75.355-228.946c-20.501-82.582-1.947-115.383 64.365-117.973l8.921-0.168 627.462-0.288c67.996 9.177 86.842 34.871 70.579 91.848-11.748 41.157-26.618 87.233-44.61 138.207l-19.032 52.607c-3.345 9.040-6.777 18.216-10.296 27.527l-14.355 37.185zM108.869 839.936l-30.784-29.632 383.68-372.224 647.142-0.001c6.25 0 12.315-1.829 17.477-5.194v0l4.834-3.867 313.267-304.666 27.456 31.040-326.080 322.752-658.626-0.050c-6.748 0-13.278 2.132-18.688 6.024v0l-3.834 3.244-355.844 352.574zM157.118 882.338l173.081-171.489c20.393 36.553 17.34 63.842-5.937 87.464l-81.984 83.501c-28.123 19.236-54.995 20.125-85.16 0.524z" />
<glyph unicode="&#xe925;" glyph-name="Google" horiz-adv-x="1707" d="M509.902-64c266.268 0 492.88 216.697 492.88 528.288v100.559h-412.149v-198.285h223.779c-36.824-133.134-160.044-236.526-304.509-236.526-83.563 0-162.877 33.992-222.362 94.894-58.069 59.485-90.645 140.216-89.228 223.779 0 83.563 33.992 162.877 93.477 220.946 59.485 59.485 138.799 92.061 222.362 92.061h2.833c63.734-1.416 123.22-19.829 174.207-55.237l143.048 140.216c-86.396 69.4-195.452 111.889-315.84 113.306h-4.249c-281.848 0-511.292-226.611-514.124-508.459-2.833-284.681 223.779-512.708 508.459-515.541h1.416zM1511.241 12.481v188.371h188.371v164.293h-188.371v188.371h-164.293v-188.371h-188.371v-164.293h188.371v-188.371h164.293z" />
<glyph unicode="&#xe926;" glyph-name="GoogleSquare" d="M810.667 960c117.821 0 213.333-95.513 213.333-213.333v-597.333c0-117.821-95.513-213.333-213.333-213.333h-597.333c-117.821 0-213.333 95.513-213.333 213.333v597.333c0 117.821 95.513 213.333 213.333 213.333h597.333zM810.667 917.333h-597.333c-92.478 0-167.777-73.554-170.585-165.351l-0.081-5.316v-597.333c0-92.478 73.554-167.777 165.351-170.585l5.316-0.081h597.333c92.478 0 167.777 73.554 170.585 165.351l0.081 5.316v597.333c0 92.478-73.554 167.777-165.351 170.585l-5.316 0.081zM400.981 617.195c38.080-0.448 72.576-13.888 99.904-35.84v0l-45.248-44.352c-16.128 11.2-34.944 17.024-55.104 17.472v0h-0.896c-26.432 0-51.52-10.304-70.336-29.12-18.816-18.368-29.568-43.456-29.568-69.888-0.448-26.432 9.856-51.968 28.224-70.784 18.816-19.264 43.904-30.016 70.336-30.016 45.696 0 84.672 32.704 96.32 74.816v0h-70.784v62.72h130.368v-31.808c0-98.56-71.68-167.104-155.904-167.104v0c-90.496 0.896-162.176 73.024-161.28 163.072 0.896 89.152 73.472 160.832 162.624 160.832v0zM715.029 488.619v-59.584h59.584v-51.968h-59.584v-59.584h-51.968v59.584h-59.584v51.968h59.584v59.584h51.968z" />
<glyph unicode="&#xe927;" glyph-name="hammer" horiz-adv-x="796" d="M186.381 904.835c25.734 0 46.595-20.861 46.595-46.595l-0.016-11.716 295.74-0.047c177.178-1.658 266.396-131.37 266.396-377.050 0-12.867-10.431-23.298-23.298-23.298s-23.298 10.431-23.298 23.298l-0.070 2.938-1.714 5.644c-15.383 43.008-56.7 67.844-127.897 73.722l-11.871 0.797 0.003-83.102-1.912-9.244-35.866-82.936 0.262-2.091v-414.135c0-12.867-12.735-23.298-28.444-23.298-13.964 0-25.578 8.242-27.986 19.11l-0.458 4.188-0.035 390.854h-110.99l0.039-390.854c0-12.867-12.735-23.298-28.444-23.298-13.964 0-25.578 8.242-27.986 19.11l-0.458 4.188-0.124 399.378c-0.51 0.623-0.989 1.274-1.435 1.953l-1.867 3.437-41.396 94.271-1.966 9.367-0.001 83.707-64.923 0.013 0.016-21.074c0-25.734-20.861-46.595-46.595-46.595h-139.786c-25.734 0-46.595 20.861-46.595 46.595v326.166c0 25.734 20.861 46.595 46.595 46.595h139.786zM528.482 799.882l-295.522 0.050v-200.192l88.221-0.049c11.437 0 20.95-8.242 22.922-19.11l0.375-4.188-0.001-102.145 33.316-75.764h149.803l32.756 75.764 0.003 102.145c0 11.437 8.241 20.95 19.11 22.922l4.188 0.375c69.713 0 123.673-13.822 160.368-41.767-17.454 158.459-85.867 236.671-205.848 241.71l-9.692 0.247zM186.381 858.24h-139.786v-326.166h139.786v326.166z" />
<glyph unicode="&#xe928;" glyph-name="HiFi" horiz-adv-x="585" d="M527.56 27.865c11.903 0 21.552-10.916 21.552-24.381 0-11.969-7.624-21.924-17.678-23.988l-3.874-0.393h-502.273c-11.903 0-21.551 10.916-21.551 24.381 0 11.969 7.624 21.924 17.678 23.988l3.874 0.393h502.273zM474.134 960c47.61 0 86.206-38.596 86.206-86.206v-732.752c0-47.61-38.596-86.206-86.206-86.206h-387.927c-47.61 0-86.206 38.596-86.206 86.206v732.752c0 47.61 38.596 86.206 86.206 86.206h387.927zM474.134 916.897h-387.927c-22.105 0-40.323-16.64-42.813-38.076l-0.29-5.027v-732.752c0-22.105 16.64-40.323 38.076-42.813l5.027-0.29h387.927c22.105 0 40.323 16.64 42.813 38.076l0.29 5.027v732.752c0 22.105-16.64 40.323-38.076 42.813l-5.027 0.29zM280.17 528.969c107.123 0 193.964-86.841 193.964-193.964s-86.841-193.964-193.964-193.964c-107.123 0-193.964 86.841-193.964 193.964s86.841 193.964 193.964 193.964zM280.17 485.866c-83.318 0-150.861-67.543-150.861-150.861s67.543-150.861 150.861-150.861c83.318 0 150.861 67.543 150.861 150.861s-67.543 150.861-150.861 150.861zM280.17 399.66c35.708 0 64.655-28.947 64.655-64.655s-28.947-64.655-64.655-64.655c-35.708 0-64.655 28.947-64.655 64.655s28.947 64.655 64.655 64.655zM280.17 356.557c-11.903 0-21.551-9.649-21.551-21.552s9.649-21.552 21.551-21.552c11.903 0 21.552 9.649 21.552 21.552s-9.649 21.552-21.552 21.552zM280.17 873.794c83.318 0 150.861-67.543 150.861-150.861s-67.543-150.861-150.861-150.861c-83.318 0-150.861 67.543-150.861 150.861s67.543 150.861 150.861 150.861zM280.17 830.691c-59.513 0-107.758-48.245-107.758-107.758s48.245-107.758 107.758-107.758c59.513 0 107.758 48.245 107.758 107.758s-48.245 107.758-107.758 107.758zM280.17 787.588c35.708 0 64.655-28.947 64.655-64.655s-28.947-64.655-64.655-64.655c-35.708 0-64.655 28.947-64.655 64.655s28.947 64.655 64.655 64.655zM280.17 744.485c-11.903 0-21.551-9.649-21.551-21.552s9.649-21.552 21.551-21.552c11.903 0 21.552 9.649 21.552 21.552s-9.649 21.552-21.552 21.552z" />
<glyph unicode="&#xe929;" glyph-name="home" horiz-adv-x="1205" d="M592.829 956.92l5.074-2.944 546.007-385.39c13.061-9.219 17.395-26.239 11.069-40.335l-2.876-5.128-88.738-129.824c-9.128-13.355-26.351-17.872-40.605-11.481l-5.185 2.912-44.233 30.322 0.012-219.588c0-18.178-14.736-32.914-32.914-32.914-16.158 0-29.597 11.643-32.384 26.998l-0.53 5.916-0.021 264.764-334.232 229.246-333.054-234.847 0.030-452.793h667.234l0.044 95.748c0 16.158 11.643 29.597 26.998 32.384l5.916 0.53c16.158 0 29.597-11.643 32.384-26.998l0.53-5.916v-128.667c0-16.158-11.643-29.597-26.998-32.384l-5.916-0.53h-733.093c-16.158 0-29.597 11.643-32.384 26.998l-0.53 5.916-0.051 439.331-32.898-23.271c-13.3-9.379-31.13-7.509-42.232 3.605l-3.826 4.597-89.598 129.824c-8.999 13.039-7.319 30.34 3.268 41.416l4.384 3.841 149.536 109.422c14.67 10.735 35.264 7.544 45.999-7.126 9.542-13.040 8.081-30.761-2.664-42.077l-4.461-3.922-123.71-90.502 52.531-76.097 423.33 298.512c9.639 6.798 22.031 7.841 32.521 3.098l5.065-2.853 435.992-299.020 51.807 75.834-500.623 353.365-290.405-203.695c-13.23-9.276-30.918-7.457-42.015 3.515l-3.831 4.54c-9.276 13.23-7.457 30.918 3.515 42.015l4.54 3.831 309.421 216.939c9.748 6.835 22.275 7.793 32.801 2.884z" />
<glyph unicode="&#xe92a;" glyph-name="hourglass" horiz-adv-x="663" d="M636.954 960l2.457-20.103c5.826-47.659-6.766-81.953-35.892-98.57l-0.237-6.395c-5.957-119.276-34.175-207.030-85.911-262.865-3.024-3.264-6.351-6.701-9.906-10.26v0l-11.278-10.985-24.901-22.873-18.985-16.695-44.768-38.076 1.393-1.241-6.485-6.655-2.748-2.442c-1.125-2.563-1.588-5.074-1.588-7.914 0-0.413 0.611-1.472 1.938-3.133v0l3.64-4.109 5.736-5.632 8.020-7.073 44.201-35.494 16.651-13.967c44.040-38.879 73.237-78.6 87.255-127.965 20.859-73.458 29.834-139.354 26.745-197.747 37.060-13.698 53.644-50.315 47.118-103.701l-2.457-20.103h-587.217v22.879c0 49.44 13.081 84.138 39.783 98.998l1.422-17.086c-6.38 62.989 2.131 135.216 25.287 216.76 14.018 49.366 43.214 89.087 87.255 127.965l16.651 13.967 44.201 35.494 8.020 7.073 5.736 5.632 3.64 4.109c1.327 1.661 1.938 2.72 1.938 3.133 0 3.889-0.868 7.162-3.114 10.793l-4.568 3.198 1.137 1.444c-0.195 0.231-0.395 0.464-0.6 0.7l-2.234 2.023-44.816 38.169-18.985 16.695-24.901 22.873-11.278 10.985c-3.555 3.558-6.882 6.996-9.906 10.26-19.658 21.216-35.921 47.040-48.857 77.451l-0.464 0.416c-20.763 49.807-32.913 111.402-36.589 184.997l-0.491 11.587c-17.258 16.084-26.524 43.41-28.043 79.666l-0.224 10.937v22.879h587.217zM554.877 20.217l-434.721-0.193c-11.783-1.426-19.546-10.881-22.849-32.514l-0.753-5.751h498.634c-0.517 28.166-12.908 38.458-40.312 38.458zM345.301 153.232c-40.982 0-66.227-15.285-78.592-38.88l-2.454-5.181c-5.834-13.699-20.315-27.723-44.115-43.191l244.702-0.067-1.208 1.311c-11.51 12.593-19.127 23.177-29.011 38.52-16.214 25.166-48.689 47.487-89.323 47.487zM300.652 405.901l-8.119-6.966-41.502-33.3-13.932-11.541c-1.245-1.061-2.365-2.028-3.332-2.882-38.046-33.587-62.27-66.542-73.52-106.161-18.435-64.921-26.867-122.778-25.445-173.52l5.051 2.421c3.332 1.641 6.567 3.259 9.706 4.852l17.668 9.249c2.749 1.488 5.399 2.948 7.951 4.379l14.109 8.222 11.684 7.451c12.2 8.216 19.362 14.714 21.185 18.996 18.394 43.189 60.666 71.889 123.145 71.889 58.254 0 103.889-31.364 127.79-68.463 8.594-13.34 14.973-22.204 24.321-32.432 16.119-17.636 32.773-28.668 49.312-31.434 2.204 51.889-6.167 111.376-25.196 178.39-11.25 39.618-35.474 72.574-73.52 106.161-0.967 0.854-2.087 1.821-3.332 2.882v0l-13.932 11.541-41.502 33.3-7.068 6.117 0.481-38.719c0.146-12.635-12.969-22.97-29.292-23.084-14.51-0.099-26.67 7.911-29.296 18.566l-0.524 4.109-0.695 65.189c-4.758-8.159-12.126-16.21-22.198-25.214zM352.54 315.784c14.785 0 27.082-8.094 29.632-18.767l0.485-4.113v-42.603c0-12.636-13.484-22.879-30.118-22.879-14.785 0-27.082 8.094-29.632 18.767l-0.485 4.113v42.603c0 12.636 13.484 22.879 30.118 22.879zM459.427 663.975c-14.226 0-28.737-2.052-44.977-6.194l-17.723-5.080-14.786-4.956-46.426-17.253-18.772-6.688-16.663-5.439-15.774-4.535c-2.623-0.7-5.259-1.376-7.935-2.036-28.92-7.136-58.027-6.592-87.104 1.431 2.814-3.459 5.715-6.833 8.703-10.057l4.804-5.051 11.106-10.993 12.613-11.83 20.459-18.393 60.614-52.46 3.49-3.356 1.474-1.884c21.711-13.944 38.005-15.422 52.379-5.596 1.744 2.573 3.687 5.039 5.81 7.481v0l3.49 3.356 60.614 52.46 20.459 18.393 12.613 11.83 11.106 10.993 4.804 5.051c12.848 13.866 24.086 30.475 33.68 49.836-13.024 7.14-32.273 10.972-58.059 10.972zM557.194 830.085l-2.317-0.061h-430.292c3.499-59.767 12.97-109.883 28.203-150.414 39.115-24.869 76.301-32.352 112.62-23.39 7.222 1.782 14.194 3.717 21.558 5.991l15.438 5.053 17.619 6.286 50.573 18.731 18.105 5.808c25.469 7.686 47.971 11.644 70.725 11.644 30.054 0 55.23-4.501 75.221-13.943 11.911 37.397 19.499 82.177 22.546 134.295zM460.566 775.238c12.636 0 22.879-13.484 22.879-30.118s-10.243-30.118-22.879-30.118h-137.277c-12.636 0-22.879 13.484-22.879 30.118s10.243 30.118 22.879 30.118h137.277zM231.772 775.238c12.636 0 22.879-10.243 22.879-22.879s-10.243-22.879-22.879-22.879c-12.636 0-22.879 10.243-22.879 22.879s10.243 22.879 22.879 22.879zM595.189 914.254h-498.634l0.753-5.764c2.89-18.929 9.194-28.535 18.619-31.595l4.229-0.919 3.313-0.193h431.408c27.404 0 39.795 10.292 40.312 38.471z" />
<glyph unicode="&#xe92b;" glyph-name="instagram" d="M924.217 133.883c0-54.139-44.004-98.088-98.133-98.088h-628.196c-54.13 0-98.105 43.949-98.105 98.088v419.249h152.86c-13.17-32.535-20.651-67.972-20.651-105.147 0-154.418 125.611-279.974 280.007-279.974s279.979 125.556 279.979 279.974c0 37.174-7.509 72.612-20.622 105.147h152.86v-419.249zM365.881 553.133c32.711 45.4 85.959 75.146 146.119 75.146s113.351-29.745 146.091-75.146c21.362-29.631 34.219-65.838 34.219-105.147 0-99.397-80.924-180.178-180.309-180.178-99.413 0-180.252 80.781-180.252 180.178 0 39.309 12.8 75.516 34.133 105.147v0zM882.83 841.93l22.613 0.114v-173.518l-172.971-0.655-0.626 173.603 150.983 0.455zM826.084 960h-628.196c-109.084 0-197.888-88.751-197.888-197.883v-628.234c0-109.132 88.804-197.883 197.888-197.883h628.196c109.084 0 197.916 88.751 197.916 197.883v628.234c0 109.132-88.832 197.883-197.916 197.883v0z" />
<glyph unicode="&#xe92c;" glyph-name="instaSquare" d="M810.667 960c117.821 0 213.333-95.513 213.333-213.333v-597.333c0-117.821-95.513-213.333-213.333-213.333h-597.333c-117.821 0-213.333 95.513-213.333 213.333v597.333c0 117.821 95.513 213.333 213.333 213.333h597.333zM810.667 917.333h-597.333c-92.478 0-167.777-73.554-170.585-165.351l-0.081-5.316v-597.333c0-92.478 73.554-167.777 165.351-170.585l5.316-0.081h597.333c92.478 0 167.777 73.554 170.585 165.351l0.081 5.316v597.333c0 92.478-73.554 167.777-165.351 170.585l-5.316 0.081zM651.593 675.556c48.482 0 87.963-39.445 87.963-87.948v0-279.215c0-48.503-39.481-87.948-87.963-87.948v0h-279.198c-48.482 0-87.95 39.445-87.95 87.948v0 279.215c0 48.503 39.468 87.948 87.95 87.948v0zM396.73 494.726h-67.938v-186.333c0-24.062 19.545-43.595 43.602-43.595v0h279.198c24.058 0 43.615 19.533 43.615 43.595v0 186.333h-67.938c5.828-14.46 9.165-30.21 9.165-46.732 0-68.63-55.814-124.433-124.435-124.433s-124.448 55.802-124.448 124.433c0 16.522 3.325 32.272 9.178 46.732v0zM512 528.124c-26.738 0-50.404-13.22-64.942-33.398-9.481-13.169-15.17-29.261-15.17-46.732 0-44.176 35.928-80.079 80.112-80.079 44.171 0 80.137 35.903 80.137 80.079 0 17.471-5.714 33.562-15.208 46.732-14.551 20.178-38.191 33.398-64.929 33.398zM686.864 623.131l-10.050-0.051-67.104-0.202 0.278-77.157 76.876 0.291v77.119z" />
<glyph unicode="&#xe92d;" glyph-name="itinerary" horiz-adv-x="1707" d="M1232.641 946.316l10.031-8.657 392.319-405.081c34.17-35.282 23.52-88.543-11.838-112.302l-383.902-457.526c-20.196-24.068-56.079-27.208-80.147-7.012l-25.322 21.247c-24.068 20.196-27.208 56.079-7.012 80.147l294.541 351.045-1274.622-0.037 0.142-310.139c0-36.042-25.971-66.017-60.22-72.234l-13.197-1.183c-36.042 0-66.017 25.971-72.234 60.22l-1.183 13.197v383.501c0 36.042 25.971 66.017 60.22 72.234l13.197 1.183 1335.449 0.055-271.669 280.534c-25.074 25.89-27.272 65.49-6.995 93.783l8.657 10.031c25.89 25.074 65.49 27.272 93.783 6.995z" />
<glyph unicode="&#xe92e;" glyph-name="jewels" horiz-adv-x="1161" d="M264.193 959.892l578.495 0.108c1.475-0.053 2.959-0.195 4.444-0.439l-5.482 0.439 4.081-0.245 4.97-0.977 4.862-1.739 5.609-3.162 4.157-3.426 233.4-224.8 2.737-2.964 3.789-5.707 2.254-5.324 1.29-5.479 0.384-5.11-0.212-3.827-0.999-5.207-2.718-6.879-2.78-4.408-518.462-699.873c-3.994-5.835-9.506-9.903-15.615-12.201l-6.594-1.75-5.756-0.488-6.91 0.688-5.432 1.58c-6.117 2.206-11.642 6.256-15.655 12.078l-521.291 699.895c-1.588 2.132-2.893 4.394-3.917 6.74l-1.234 3.264-1.236 5.32-0.253 2.181-0.12 3.675c0.044 1.494 0.176 2.985 0.406 4.462l-0.406-5.25c0 2.415 0.251 4.771 0.728 7.044l1.999 6.346 2.042 4.021 2.42 3.545 3.635 3.978 61.633 57.617c13.771 12.874 35.371 12.146 48.244-1.625 11.443-12.241 12.14-30.668 2.481-43.653l-2.829-3.074h170.325l-39.526 126.566-15.53-15.631c-11.847-11.851-30.24-13.17-43.544-3.956l-4.728 3.949c-11.851 11.847-13.17 30.24-3.956 43.544l3.949 4.728 57.013 56.954 5.828 4.158 3.642 1.779 4.902 1.626 5.464 0.909zM725.606 665.771l-340.105-4.642 170.293-545.396 169.811 550.038zM312.047 666.999h-209.988l361.677-485.581-151.689 485.581zM1007.206 666.999l-209.92-0.273-149.709-485.103 359.629 485.376zM555.113 875.814l-140.734-146.009 269.039 3.618-128.305 142.391zM857.839 862.857l-39.39-127.59h171.895l-132.506 127.59zM795.375 891.802h-162.748l121.173-134.622 41.574 134.622zM475.682 891.802h-162.27l39.731-127.181 122.539 127.181z" />
<glyph unicode="&#xe92f;" glyph-name="lock" horiz-adv-x="796" d="M0 548.836c0 36.122 29.283 65.406 65.406 65.406l81.677 0.045 0.032 91.136 0.054 39.548c4.058 141.897 85.301 215.030 237.577 215.030l4.26-0.057 4.273 0.057c148.813 0 232.952-69.083 244.823-201.664l0.923-13.028 0.371-9.34-0.054-121.682 55.949-0.045c35.731 0 65.542-25.345 72.437-59.038l1.12-7.341 0.382-7.56v-490.542c0-38.283-29.095-69.771-66.379-73.557l-7.56-0.382h-621.353c-38.283 0-69.771 29.095-73.557 66.379l-0.382 7.56v499.075zM694.8 564.486l-620.861-0.014c-10.76 0-19.994-7.072-23.047-16.618l-0.917-4.229-0.206-3.322v-490.542c0-10.76 7.072-19.994 16.618-23.047l4.229-0.917 3.322-0.206h612.819c16.771 0 30.594 12.625 32.483 28.889l0.22 3.814v482.008c0 10.76-7.072 19.994-16.618 23.047l-4.229 0.917-3.814 0.22zM400.967 450.728c58.897 0 106.642-47.745 106.642-106.642 0-27.309-10.331-52.969-28.386-72.45l-4.289-4.201-0.028-86.862c0-18.789-12.566-34.642-29.752-39.616l-5.889-1.244-5.595-0.376h-65.406c-20.876 0-38.129 15.513-40.86 35.641l-0.376 5.596-0.006 86.862-4.283 4.171c-13.554 14.613-22.76 32.707-26.516 52.368l-1.419 9.952-0.48 10.16 0.078 4.574c-0.052 1.313-0.078 2.633-0.078 3.959 0 54.184 43.925 98.108 98.108 98.108l3.921-0.098c1.529 0.065 3.067 0.098 4.612 0.098zM400.967 400.958c-31.41 0-56.872-25.463-56.872-56.872 0-12.212 3.845-23.855 10.755-33.355l4.508-5.431 3.707-3.616 10.894-9.75 2.843-6.359-0.058-96.419h48.356l0.071 96.447v8.531l10.879 9.744c12.789 11.456 20.593 27.34 21.664 44.634l0.127-4.426c0 31.41-25.463 56.872-56.872 56.872zM393.279 811.232c-59.615 0-90.106-27.746-96.959-89.475l-0.886-10.030-0.393-7.289-0.046-90.152h192.455l0.059 89.965c-0.537 70.925-26.912 103.79-85.24 106.759l-8.99 0.222zM393.279 910.231c-123.1 0-185.637-49.818-195.195-154.845l-0.822-11.464-0.331-7.955-0.071-121.681 42.642 0.057 0.069 90.715 0.693 11.232c2.182 26.082 8.194 48.24 17.966 66.407 20.1 51.414 62.786 78.305 126.516 78.305l4.26-0.102 4.273 0.102c86.456 0 136.23-47.963 143.169-136.675l0.644-11.301 0.185-8.587-0.050-90.152h52.37v121.572l-0.497 11.077c-6.849 107.030-65.294 159.489-182.565 163.096l-13.255 0.2z" />
<glyph unicode="&#xe932;" glyph-name="mapIcon" horiz-adv-x="887" d="M416.427 960c110.156 0 215.88-42.345 293.967-117.851 78.357-75.766 122.459-178.72 122.459-286.164 0-204.417-133.35-390.666-394.234-558.839-13.513-8.711-30.872-8.711-44.385 0-260.884 168.173-394.234 354.422-394.234 558.839 0 107.444 44.103 210.398 122.459 286.164 78.087 75.506 183.811 117.851 293.967 117.851zM416.427 878.080c-89.004 0-174.283-34.156-237.023-94.822-62.471-60.406-97.484-142.141-97.484-227.273 0-155.766 95.831-304.383 291.805-445.783l21.381-15.122 21.321-14.491 21.321 14.491c196.111 136.015 298.739 278.758 311.764 428.169l1.079 16.629 0.343 16.107c0 85.132-35.013 166.867-97.484 227.273-62.74 60.666-148.019 94.822-237.023 94.822zM416.428 717.991c91.441 0 166.116-72.206 166.116-161.978s-74.675-161.978-166.116-161.978c-91.441 0-166.116 72.206-166.116 161.978s74.675 161.978 166.116 161.978zM416.428 636.071c-46.802 0-84.196-36.157-84.196-80.058s37.393-80.058 84.196-80.058c46.802 0 84.196 36.157 84.196 80.058s-37.393 80.058-84.196 80.058z" />
<glyph unicode="&#xe933;" glyph-name="menu" horiz-adv-x="1707" d="M1367.702 106.667c47.128 0 85.333-38.205 85.333-85.333 0-43.762-32.942-79.83-75.382-84.759l-9.952-0.574h-1282.369c-47.128 0-85.333 38.205-85.333 85.333 0 43.762 32.942 79.83 75.382 84.759l9.952 0.574h1282.369zM1111.702 533.333c47.128 0 85.333-38.205 85.333-85.333 0-43.762-32.942-79.83-75.382-84.759l-9.952-0.574h-1026.369c-47.128 0-85.333 38.205-85.333 85.333 0 43.762 32.942 79.83 75.382 84.759l9.952 0.574h1026.369zM1623.702 960c47.128 0 85.333-38.205 85.333-85.333 0-43.762-32.942-79.83-75.382-84.759l-9.952-0.574h-1538.369c-47.128 0-85.333 38.205-85.333 85.333 0 43.762 32.942 79.83 75.382 84.759l9.952 0.574h1538.369z" />
<glyph unicode="&#xe934;" glyph-name="newChair" horiz-adv-x="1138" d="M910.222 960c62.838 0 113.778-50.94 113.778-113.778v-341.333h56.889c31.419 0 56.889-25.47 56.889-56.889v-341.333c0-31.419-25.47-56.889-56.889-56.889h-56.889v-113.778h-170.667v113.778h-568.889v-113.778h-170.667v113.778h-56.889c-31.419 0-56.889 25.47-56.889 56.889v341.333c0 31.419 25.47 56.889 56.889 56.889h56.889v341.333c0 62.838 50.94 113.778 113.778 113.778h682.667zM227.556 49.778h-56.889v-56.889h56.889v56.889zM967.111 49.778h-56.889v-56.889h56.889v56.889zM227.556 448h-170.667v-341.333h170.667v341.333zM1080.889 448h-56.889v-0.722h-113.368v-113.056h-0.41v-227.556h170.667v341.333zM853.333 334.222h-568.889v-227.556h568.889v227.556zM910.222 903.111h-682.667c-29.175 0-53.22-21.961-56.506-50.254l-0.383-6.634v-338.091l56.889-0.007c29.175 0 53.22-21.961 56.506-50.254l0.383-6.634v-60.125h568.889v56.889c0 31.419 25.47 56.889 56.889 56.889h56.889v341.333c0 29.175-21.961 53.22-50.254 56.506l-6.634 0.383z" />
<glyph unicode="&#xe935;" glyph-name="news" horiz-adv-x="1325" d="M1145.789 960c89.748 0 139.376-48.023 142.585-137.004l0.166-9.351v-697.025c0-113.262-53.128-176.046-154.314-180.385l-9.627-0.235h-973.75c-103.035 0-154.957 60.426-150.596 170.186l0.574 10.434v498.829c0 103.193 32.668 164.748 98.196 176.027l1.524 0.249 0.124 6.013c3.341 102.293 56.714 158.561 154.672 162.085l9.944 0.176h880.5zM1145.789 916.842h-880.5c-80.312 0-118.829-37.606-121.478-120.131l-0.147-9.355v-703.874c0-11.918-9.661-21.579-21.579-21.579-10.594 0-19.404 7.634-21.232 17.7l-0.348 3.879-0.043 663.919-4.592-1.488c-32.971-12.118-50.272-50.346-51.776-120.26l-0.107-10.204-0.052-500.324c-6.315-90.953 24.912-133.025 98.832-135.818l8.084-0.15h973.61c79.67 0.519 118.222 40.536 120.786 127.918l0.137 9.544v697.025c0 68.549-28.453 100.59-91.528 103.043l-8.065 0.153zM1147.977 127.42c4.844 0 8.77-13.484 8.77-30.118 0-14.785-3.103-27.082-7.194-29.632l-1.576-0.485h-370.885c-4.844 0-8.77 13.484-8.77 30.118 0 14.785 3.102 27.082 7.194 29.632l1.576 0.485h370.885zM595.689 472.688c47.671 0 86.317-38.645 86.317-86.317v-215.792c0-47.671-38.645-86.317-86.317-86.317h-302.109c-47.671 0-86.317 38.645-86.317 86.317v215.792c0 47.671 38.645 86.317 86.317 86.317h302.109zM595.689 429.529h-302.109c-22.133 0-40.375-16.661-42.868-38.125l-0.29-5.033v-215.792c0-22.133 16.661-40.375 38.125-42.868l5.033-0.29h302.109c22.133 0 40.375 16.661 42.868 38.125l0.29 5.033v215.792c0 22.133-16.661 40.375-38.125 42.868l-5.033 0.29zM1147.977 300.054c4.844 0 8.77-13.484 8.77-30.118 0-14.785-3.103-27.082-7.194-29.632l-1.576-0.485h-370.885c-4.844 0-8.77 13.484-8.77 30.118 0 14.785 3.102 27.082 7.194 29.632l1.576 0.485h370.885zM1147.977 472.688c4.844 0 8.77-13.484 8.77-30.118 0-14.785-3.103-27.082-7.194-29.632l-1.576-0.485h-370.885c-4.844 0-8.77 13.484-8.77 30.118 0 14.785 3.102 27.082 7.194 29.632l1.576 0.485h370.885zM1081.221 833.114c15.882 0 29.635-1.496 41.259-4.488s21.694-7.596 30.211-13.811c2.762-2.072 4.143-4.028 4.143-5.87 0-1.381-0.46-2.647-1.381-3.798v0l-11.049-17.954-1.304-1.726c-0.818-0.921-1.534-1.381-2.148-1.381-0.921 0-2.417 0.691-4.488 2.072-14.731 9.437-33.031 14.156-54.897 14.156-14.501 0-25.435-2.647-32.8-7.941s-11.049-13.696-11.049-25.204c0-7.136 1.554-12.832 4.661-17.091s7.653-7.884 13.638-10.876c5.985-2.992 15.652-7.020 29.002-12.084v0l8.632-3.453 9.64-3.943c12.264-5.174 22.171-10.017 29.721-14.529 9.437-5.639 16.745-12.66 21.925-21.061s7.768-19.162 7.768-32.282c0-19.795-7.423-35.39-22.27-46.784s-35.965-17.091-63.357-17.091c-16.343 0-32.398 1.784-48.165 5.352s-28.369 8.574-37.807 15.019c-2.992 2.072-4.488 3.913-4.488 5.524s0.46 2.992 1.381 4.143v0l11.394 17.954 1.343 1.726c0.87 0.921 1.688 1.381 2.455 1.381 1.151 0 2.647-0.575 4.488-1.726 8.517-5.064 18.414-9.15 29.693-12.257s22.673-4.661 34.181-4.661c15.652 0 27.449 2.59 35.39 7.769s11.912 13.523 11.912 25.032c0 6.905-1.496 12.43-4.488 16.573s-7.366 7.711-13.12 10.703c-5.754 2.992-15.077 7.020-27.967 12.084v0l-7.941 3.107-10.736 4.445c-10.25 4.402-19.044 8.675-26.381 12.818-9.783 5.524-17.896 12.775-24.341 21.752s-9.668 19.91-9.668 32.8c0 20.946 7.999 37.116 23.996 48.51s37.001 17.091 63.011 17.091zM243.604 827.935l2.992-0.153c1.841-0.205 3.376-0.614 4.604-1.228 1.841-0.921 3.683-2.762 5.524-5.524v0l113.938-158.132v152.263l0.326 3.99c0.435 2.404 1.304 4.297 2.609 5.678 1.957 2.072 5.237 3.107 9.84 3.107v0h18.299l4.182-0.345c2.506-0.46 4.45-1.381 5.831-2.762 2.072-2.072 3.107-5.294 3.107-9.667v0-209.577l-0.326-3.798c-0.435-2.302-1.304-4.143-2.609-5.524-1.957-2.072-5.352-3.107-10.185-3.107v0h-16.228l-2.954 0.134c-1.79 0.179-3.222 0.537-4.297 1.074-1.611 0.806-3.453 2.59-5.524 5.352v0l-113.938 157.787v-151.917l-0.326-3.798c-0.435-2.302-1.304-4.143-2.609-5.524-1.957-2.072-5.352-3.107-10.185-3.107v0h-18.299l-4.162 0.345c-2.481 0.46-4.373 1.381-5.678 2.762-1.957 2.072-2.935 5.179-2.935 9.322v0 209.577l0.326 3.99c0.435 2.404 1.304 4.297 2.609 5.678 1.957 2.072 5.352 3.107 10.185 3.107v0h15.882zM632.72 827.935l4.124-0.307c2.43-0.409 4.22-1.228 5.371-2.455 1.726-1.841 2.589-4.949 2.589-9.322v0-9.322l-0.288-3.971c-0.384-2.379-1.151-4.22-2.302-5.524-1.726-1.957-4.891-2.935-9.495-2.935v0h-112.212v-66.982h81.483l4.143-0.307c2.455-0.409 4.297-1.228 5.524-2.455 1.841-1.841 2.762-4.949 2.762-9.322v0-8.632l-0.307-3.971c-0.409-2.379-1.228-4.22-2.455-5.524-1.841-1.957-5.064-2.935-9.667-2.935v0h-81.483v-67.327h111.867l4.143-0.326c2.455-0.435 4.297-1.304 5.524-2.609 1.841-1.957 2.762-5.121 2.762-9.495v0-9.322l-0.307-3.76c-0.409-2.251-1.228-3.99-2.455-5.217-1.841-1.841-5.064-2.762-9.668-2.762v0h-143.286l-4.162 0.345c-2.481 0.46-4.373 1.381-5.678 2.762-1.957 2.072-2.935 5.179-2.935 9.322v0 209.577l0.326 3.99c0.435 2.404 1.304 4.297 2.609 5.678 1.957 2.072 5.237 3.107 9.84 3.107v0h143.631zM718.691 827.935l3.107-0.192c1.841-0.256 3.223-0.767 4.143-1.535 1.381-1.151 2.302-2.992 2.762-5.524v0l34.527-151.918 41.432 133.964 0.978 2.474c0.691 1.458 1.458 2.532 2.302 3.222 1.266 1.036 3.395 1.554 6.387 1.554v0h15.882l2.705-0.173c1.611-0.23 2.839-0.691 3.683-1.381 1.266-1.036 2.359-2.935 3.28-5.697v0l41.777-133.964 34.181 151.918 0.633 2.302c0.537 1.381 1.304 2.455 2.302 3.222 1.496 1.151 3.855 1.726 7.078 1.726v0h28.312l2.87-0.324c2.46-0.647 3.69-2.266 3.69-4.855 0-1.381-0.115-2.417-0.345-3.107v0l-54.897-217.863-1.055-2.896c-0.793-1.714-1.765-2.992-2.916-3.836-1.726-1.266-4.201-1.899-7.423-1.899v0h-18.644l-2.973 0.211c-1.816 0.281-3.299 0.844-4.45 1.688-1.726 1.266-3.050 3.51-3.971 6.733v0l-41.777 138.107-41.432-138.107-1.055-2.896c-0.793-1.714-1.765-2.992-2.916-3.836-1.726-1.266-4.201-1.899-7.423-1.899v0h-18.99l-3.165 0.211c-1.918 0.281-3.453 0.844-4.604 1.688-1.726 1.266-2.935 3.51-3.625 6.733v0l-54.552 217.863-0.259 1.295-0.086 1.813c0 3.453 2.187 5.179 6.56 5.179v0h27.967z" />
<glyph unicode="&#xe936;" glyph-name="off" horiz-adv-x="960" d="M319.32 804.883c13.301-24.954 3.854-55.965-21.1-69.265-131.742-70.22-195.82-179.662-195.82-335.583 0-208.55 167.14-350.034 368.347-350.034 200.93 0 362.503 138.573 362.503 350.034 0 157.65-64.582 266.867-197.393 335.245-25.141 12.944-35.028 43.817-22.085 68.958s43.817 35.028 68.958 22.085c167.398-86.185 252.92-230.812 252.92-426.287 0-271.804-210.611-452.434-464.903-452.434-254.331 0-470.747 183.197-470.747 452.434 0 193.329 84.547 337.731 250.055 425.948 24.954 13.301 55.965 3.854 69.265-21.1zM467.2 960c26.102 0 47.642-19.532 50.801-44.778l0.399-6.422v-445.469c0-28.277-22.923-51.2-51.2-51.2-26.102 0-47.642 19.532-50.801 44.778l-0.399 6.422v445.469c0 28.277 22.923 51.2 51.2 51.2z" />
<glyph unicode="&#xe937;" glyph-name="pencil" horiz-adv-x="916" d="M604.383 871.136l210.645-183.111c12.601-10.954 13.936-30.048 2.982-42.649l-459.717-528.728c-2.947-4.052-6.988-7.457-12.052-9.734l-303.56-136.491c-23.516-10.573-48.625 11.253-41.427 36.012l92.915 319.602c1.564 5.381 4.412 9.89 8.062 13.386 0.29 0.444 0.661 0.896 1.047 1.339l458.455 527.393c10.954 12.601 30.048 13.936 42.649 2.982zM138.992 263.805l-37.185-127.802 55.080-47.859 121.464 54.518-139.359 121.143zM696.104 711.222l-418.708-481.765 56.313-48.966 418.764 481.733-56.368 48.998zM587.469 805.659l-418.764-481.733 63.042-54.803 418.762 481.765-63.041 54.771zM670.765 955.782l4.421-3.197 210.645-183.111 3.782-3.933c8.964-11.184 8.937-27.516-0.799-38.717s-25.906-13.5-38.229-6.18l-4.421 3.197-210.645 183.111-3.782 3.933c-8.964 11.184-8.937 27.516 0.799 38.717s25.906 13.5 38.229 6.18z" />
<glyph unicode="&#xe938;" glyph-name="phone" horiz-adv-x="626" d="M512 960c62.838 0 113.778-50.94 113.778-113.778v-796.444c0-62.838-50.94-113.778-113.778-113.778h-398.222c-62.838 0-113.778 50.94-113.778 113.778v796.444c0 62.838 50.94 113.778 113.778 113.778h398.222zM512 903.111h-398.222c-29.175 0-53.22-21.961-56.506-50.254l-0.383-6.634v-796.444c0-29.175 21.961-53.22 50.254-56.506l6.634-0.383h398.222c29.175 0 53.22 21.961 56.506 50.254l0.383 6.634v796.444c0 29.175-21.961 53.22-50.254 56.506l-6.634 0.383zM327.111 163.556c23.564 0 42.667-19.103 42.667-42.667s-19.102-42.667-42.667-42.667c-23.564 0-42.667 19.103-42.667 42.667s19.102 42.667 42.667 42.667zM410.75 846.222c15.709 0 28.444-12.735 28.444-28.444 0-13.964-10.062-25.578-23.332-27.986l-5.113-0.458h-183.194c-15.709 0-28.444 12.735-28.444 28.444 0 13.964 10.062 25.578 23.331 27.986l5.113 0.458h183.194z" />
<glyph unicode="&#xe939;" glyph-name="porte-monnaie" horiz-adv-x="1081" d="M735.055 944.508c176.912 0 274.835-125.853 290.301-358.219 0.173-2.593 0.11-5.147-0.17-7.641 0.154-4.42 0.264-8.986 0.264-13.63v0-373.877c0-139.992-54.252-226.179-162.165-241.751v0l-6.094-0.437h-625.158c-147.882 0-225.732 81.132-217.154 227.089v0l-0.104 629.627c-0.365 2.245-0.555 4.549-0.555 6.898 0 84.267 61.375 128.592 163.663 131.76l11.983 0.183h545.187zM100.124 678.040l0.016-504.503-0.522-13.005c-2.293-89.018 36.965-126.246 132.415-126.246v0h621.356l5.304 0.902c46.109 9.678 72.512 44.917 79.521 114.65l-85.542 0.248c-100.711 10.726-155.283 77.622-155.283 186.015 0 104.628 48.89 169.505 141.946 179.299l10.933 0.885 89.82 0.021 0.029 48.713c0 66.767-29.102 97.655-116.485 100.019l-11.229 0.147h-633.712c-26.824 0-50.79 3.505-71.569 10.343v0l-6.999 2.513zM940.089 430.972l-87.345 0.051c-49.268-2.863-70.020-28.756-70.020-94.922 0-62.735 20.977-91.935 66.23-99.76l8.238-1.162 82.897 0.038v58.254l-67.903-0.038c-23.564 0-42.667 19.103-42.667 42.667 0 21.6 16.051 39.452 36.877 42.277l5.79 0.389 67.903 0.038v52.167zM735.055 859.175h-545.187c-64.077 0-87.676-13.453-90.101-41.507l0.373-6.117 0.148-7.092c1.932-38.787 22.738-53.941 78.404-53.941v0h633.712c37.388 0 69.81-4.684 97.302-13.708-31.439 79.86-85.721 118.871-163.76 122.14l-10.891 0.225z" />
<glyph unicode="&#xe93a;" glyph-name="quote" horiz-adv-x="1317" d="M1280.745-46.557h-571.345v492.080c0 81.845 14.686 149.727 44.081 203.888 29.396 54.113 67.304 99.038 113.796 134.896 46.372 35.714 98.387 64.506 155.876 86.258 57.513 21.727 114.423 41.091 170.634 58.116l85.655-153.344c-42.634-16.205-79.047-32.579-109.263-49.218-30.288-16.639-54.981-34.725-74.152-54.306-19.195-19.653-33.23-42.032-42.2-67.087-8.946-25.151-13.408-54.788-13.408-88.838h240.325v-562.446zM572.623-46.557h-572.623v492.080c0 81.845 14.686 149.727 44.081 203.888 29.396 54.113 67.521 99.038 114.399 134.896 46.854 35.714 98.99 64.506 156.551 86.258 57.513 21.727 114.399 41.091 170.634 58.116l84.377-153.344c-42.634-16.205-79.047-32.579-109.263-49.218-30.288-16.639-54.981-34.725-74.152-54.306-19.195-19.653-33.206-42.032-42.2-67.087-8.946-25.151-13.408-54.788-13.408-88.838h241.603v-562.446z" />
<glyph unicode="&#xe93b;" glyph-name="search" d="M731.964 316.012h-46.487l-16.159 16.041c57.084 66.565 91.803 152.859 91.803 247.409 0 210.174-170.374 380.539-380.56 380.539s-380.56-170.364-380.56-380.539c0-210.174 170.374-380.539 380.56-380.539 94.555 0 180.795 34.658 247.364 91.68l16.159-16.041v-46.367l292.622-292.195 87.295 87.29-292.036 292.722zM380.56 316.012c-145.55 0-263.465 117.908-263.465 263.45 0 145.483 117.915 263.45 263.465 263.45 145.491 0 263.465-117.967 263.465-263.45 0-145.541-117.974-263.45-263.465-263.45v0z" />
<glyph unicode="&#xe93c;" glyph-name="setting" horiz-adv-x="1317" d="M349.928 356.571c27.772 0 50.724-20.638 54.356-47.413l0.501-7.444-0.012-91.429h788.328c30.297 0 54.857-24.56 54.857-54.857 0-27.772-20.638-50.724-47.413-54.356l-7.444-0.501h-788.328l0.012-88.177c0-30.297-24.56-54.857-54.857-54.857-27.772 0-50.724 20.638-54.356 47.413l-0.501 7.444-0.012 88.177h-201.13c-30.297 0-54.857 24.56-54.857 54.857 0 27.772 20.637 50.724 47.413 54.356l7.444 0.501h201.13l0.012 91.429c0 30.297 24.56 54.857 54.857 54.857zM935.071 945.283c27.772 0 50.724-20.638 54.356-47.413l0.501-7.444-0.012-94.998h203.185c30.297 0 54.857-24.56 54.857-54.857 0-27.772-20.638-50.724-47.413-54.356l-7.444-0.501h-203.185l0.012-84.608c0-30.297-24.56-54.857-54.857-54.857-27.772 0-50.724 20.638-54.356 47.413l-0.501 7.444-0.012 84.608h-786.273c-30.297 0-54.857 24.56-54.857 54.857 0 27.772 20.637 50.724 47.413 54.356l7.444 0.501h786.273l0.012 94.998c0 30.297 24.56 54.857 54.857 54.857z" />
<glyph unicode="&#xe93d;" glyph-name="share" d="M824.437 960c109.966 0 199.111-89.145 199.111-199.111s-89.145-199.111-199.111-199.111c-73.96 0-138.502 40.325-172.838 100.189l-259.728-137.219c3.854-15.465 5.899-31.645 5.899-48.303 0-37.781-10.523-73.105-28.798-103.2l277.317-149.106c32.683 65.272 100.182 110.083 178.148 110.083 109.966 0 199.111-89.145 199.111-199.111s-89.145-199.111-199.111-199.111c-109.966 0-199.111 89.145-199.111 199.111 0 11.638 0.998 23.042 2.914 34.132l-296.23 159.338c-35.299-31.854-82.060-51.248-133.35-51.248-109.966 0-199.111 89.145-199.111 199.111s89.145 199.111 199.111 199.111c73.023 0 136.865-39.31 171.519-97.923l260.414 137.569c-3.444 14.67-5.266 29.966-5.266 45.687 0 109.966 89.145 199.111 199.111 199.111zM824.437 277.333c-78.547 0-142.222-63.675-142.222-142.222s63.675-142.222 142.222-142.222c78.547 0 142.222 63.675 142.222 142.222s-63.675 142.222-142.222 142.222zM198.66 618.667c-78.547 0-142.222-63.675-142.222-142.222s63.675-142.222 142.222-142.222c78.547 0 142.222 63.675 142.222 142.222s-63.675 142.222-142.222 142.222zM824.437 903.111c-78.547 0-142.222-63.675-142.222-142.222s63.675-142.222 142.222-142.222c78.547 0 142.222 63.675 142.222 142.222s-63.675 142.222-142.222 142.222z" />
<glyph unicode="&#xe93e;" glyph-name="shop" horiz-adv-x="1205" d="M1097.328 843.352l36.525-120.86c11.436-17.631 17.974-38.064 17.974-59.846 0-52.287-37.672-96.793-90.326-113.457l-0.027-563.604c0-14.785-10.654-27.082-24.704-29.632l-5.414-0.485h-903.529c-14.785 0-27.082 10.654-29.632 24.704l-0.485 5.414 0.032 563.585c-52.685 16.649-90.385 61.169-90.385 113.476 0 21.832 6.568 42.307 18.052 59.966l36.447 120.74h1035.473zM252.55 590.41c-22.058-26.097-55.898-43.984-94.563-47.572l-0.043-527.087 270.999 0.060 0.088 542.138c-19.871-10.039-42.895-15.775-67.434-15.775-44.599 0-84.192 18.947-109.047 48.235zM906.533 590.41c-24.755-29.288-64.349-48.235-108.947-48.235s-84.192 18.947-109.047 48.235c-24.755-29.288-64.349-48.235-108.947-48.235-34.707 0-66.384 11.475-90.441 30.368l0.028-556.732 512.060-0.060 0.018 527.081c-38.691 3.574-72.564 21.467-94.723 47.577zM352.81 375.662c14.785 0 27.082-10.654 29.632-24.704l0.485-5.414v-246.803c0-16.633-13.484-30.118-30.118-30.118-14.785 0-27.082 10.654-29.632 24.704l-0.485 5.414v246.803c0 16.633 13.484 30.118 30.118 30.118zM901.227 239.329c10.153-10.748 10.853-27.003 2.391-38.505l-3.602-4.070-106.32-100.438c-12.091-11.422-31.153-10.88-42.576 1.211-10.153 10.748-10.853 27.003-2.391 38.505l3.602 4.070 106.32 100.438c12.091 11.422 31.153 10.88 42.576-1.211zM900.618 427.089c10.461-10.449 11.632-26.677 3.507-38.42l-3.483-4.173-265.76-266.071c-11.755-11.769-30.824-11.78-42.593-0.025-10.461 10.449-11.632 26.677-3.507 38.42l3.483 4.173 265.76 266.071c11.755 11.769 30.824 11.78 42.593 0.025zM1052.559 783.149h-945.995l-25.974-86.172-4.685-7.205c-5.509-8.471-8.313-17.632-8.313-27.127 0-31.504 32.494-60.235 76.011-60.235 22.689 0 43.237 8.011 57.318 21.014l5.626 5.87 45.911 54.318 46.019-54.227c14.002-16.5 37.178-26.975 63.12-26.975 22.689 0 43.237 8.011 57.318 21.014l5.626 5.87 45.911 54.318 46.019-54.227c14.002-16.5 37.178-26.975 63.12-26.975 22.689 0 43.237 8.011 57.318 21.014l5.626 5.87 45.911 54.318 46.019-54.227c14.002-16.5 37.178-26.975 63.12-26.975 22.689 0 43.237 8.011 57.318 21.014l5.626 5.87 45.911 54.318 46.019-54.227c14.002-16.5 37.178-26.975 63.12-26.975 43.517 0 76.011 28.731 76.011 60.235 0 7.105-1.57 14.022-4.668 20.604l-3.606 6.464-4.651 7.171-26.107 86.264zM1002.959 960c16.634 0 30.118-13.484 30.118-30.118 0-14.785-10.654-27.082-24.704-29.632l-5.414-0.485h-875.132c-16.634 0-30.118 13.484-30.118 30.118 0 14.785 10.654 27.082 24.704 29.632l5.414 0.485h875.132z" />
<glyph unicode="&#xe93f;" glyph-name="television" horiz-adv-x="1205" d="M1016.941-3.765c16.634 0 30.118-13.484 30.118-30.118 0-14.785-10.654-27.082-24.704-29.632l-5.414-0.485h-776c-16.633 0-30.118 13.484-30.118 30.118 0 14.785 10.654 27.082 24.704 29.632l5.414 0.485h776zM1084.235 960c66.534 0 120.471-53.937 120.471-120.471v-542.118c0-66.534-53.937-120.471-120.471-120.471h-368.7l40.088-168.632h-251.614l39.976 168.632h-423.514c-66.534 0-120.471 53.937-120.471 120.471v542.118c0 66.534 53.937 120.471 120.471 120.471h963.765zM660.781 146.824h-61.982l-18.613-78.246h99.208l-18.613 78.246zM1084.235 899.765h-963.765c-30.891 0-56.351-23.253-59.83-53.211l-0.405-7.025v-542.118c0-30.891 23.253-56.351 53.211-59.83l7.025-0.405h963.765c30.891 0 56.351 23.253 59.83 53.211l0.405 7.025v542.118c0 30.891-23.253 56.351-53.211 59.83l-7.025 0.405z" />
<glyph unicode="&#xe940;" glyph-name="time" d="M512 960c282.77 0 512-229.23 512-512s-229.23-512-512-512c-282.77 0-512 229.23-512 512s229.23 512 512 512zM512 891.733c-245.067 0-443.733-198.666-443.733-443.733s198.666-443.733 443.733-443.733c245.067 0 443.733 198.666 443.733 443.733s-198.666 443.733-443.733 443.733zM512 753.967c16.757 0 30.693-12.075 33.583-27.998l0.55-6.136-0.056-252.036 244.467-140.947c14.518-8.368 20.563-25.789 15.115-41.027l-2.587-5.59c-8.368-14.518-25.789-20.563-41.027-15.115l-5.59 2.587-261.5 150.722c-8.811 5.078-14.804 13.755-16.557 23.568l-0.532 6.005v271.833c0 18.851 15.282 34.133 34.133 34.133z" />
<glyph unicode="&#xe941;" glyph-name="tips" horiz-adv-x="910" d="M508.413 830.105c133.987-14.636 243.28-119.761 259.89-249.963 10.53-82.474-13.971-162.308-68.962-224.794-47.29-53.695-73.537-118.809-74.344-183.691h29.468c10.097 0 18.272-7.958 18.272-17.799 0-9.836-8.174-17.799-18.272-17.799h-29.621v-68.672c0-29.201-24.203-52.931-54.086-53.326-8.575-44.359-48.501-78.061-96.498-78.061-47.992 0-87.931 33.702-96.511 78.061-29.882 0.39-54.086 24.125-54.086 53.326v68.672h-29.621c-10.097 0-18.272 7.963-18.272 17.799 0 9.84 8.174 17.799 18.272 17.799h29.621v3.896c0 62.868-25.514 125.666-71.835 176.838-47.717 52.703-73.979 120.472-73.979 190.833 0 167.397 148.417 306.764 330.563 286.881zM533.287 13.991h-118.071c7.8-24.524 31.319-42.393 59.044-42.393 27.712 0 51.23 17.869 59.026 42.393zM588.301 136.059h-228.093v-68.672c0-9.819 8.188-17.799 18.272-17.799h191.549c10.079 0 18.272 7.98 18.272 17.799v68.672zM214.389 543.224c0-61.688 23.037-121.099 64.845-167.296 52.208-57.674 80.973-128.834 80.973-200.375v-3.896h95.782v149.449c-34.841 8.086-60.913 38.48-60.913 74.863 0 42.529 35.526 77.122 79.185 77.122 43.664 0 79.172-34.593 79.172-77.122 0-36.383-26.059-66.781-60.9-74.863v-149.449h95.786c0.802 73.371 30.315 146.72 83.293 206.859 48.195 54.787 69.66 124.832 60.436 197.243-14.561 114.058-110.329 206.144-227.701 218.955-159.095 17.509-289.957-104.086-289.957-251.49zM747.372 289.414l45.020-42.762c6.997-6.649 6.997-17.417 0-24.065s-18.329-6.649-25.326 0l-45.020 42.761c-6.997 6.649-6.997 17.417 0 24.065s18.329 6.649 25.326 0zM226.497 289.414c6.997-6.649 6.997-17.417 0-24.065l-45.020-42.761c-6.997-6.649-18.329-6.649-25.326 0s-6.997 17.417 0 24.065l45.020 42.762c6.997 6.649 18.329 6.649 25.326 0zM474.261 437.493c-23.514 0-42.646-18.637-42.646-41.525 0-22.91 19.132-41.542 42.646-41.542 23.501 0 42.628 18.632 42.628 41.542 0 22.888-19.128 41.525-42.628 41.525zM104.547 550.4c10.731 0 19.409-5.726 19.409-12.8s-8.678-12.8-19.409-12.8h-68.972c-10.731 0-19.409 5.726-19.409 12.8s8.678 12.8 19.409 12.8h68.972zM886.020 550.4c10.731 0 19.409-5.726 19.409-12.8s-8.678-12.8-19.409-12.8h-68.972c-10.726 0-19.409 5.726-19.409 12.8s8.683 12.8 19.409 12.8h68.972zM181.477 827.015l45.020-42.769c6.997-6.647 6.997-17.413 0-24.060s-18.329-6.647-25.326 0l-45.020 42.769c-6.997 6.647-6.997 17.413 0 24.060s18.329 6.647 25.326 0zM792.392 827.015c6.997-6.647 6.997-17.413 0-24.060l-45.020-42.769c-6.997-6.647-18.329-6.647-25.326 0s-6.997 17.413 0 24.060l45.020 42.769c6.997 6.647 18.329 6.647 25.326 0zM460.797 960c7.449 0 13.474-8.243 13.474-18.435v-65.53c0-10.192-6.024-18.435-13.474-18.435-7.446 0-13.474 8.243-13.474 18.435v65.53c0 10.192 6.028 18.435 13.474 18.435z" />
<glyph unicode="&#xe942;" glyph-name="trash" horiz-adv-x="796" d="M520.725 933.279c50.074 0 90.667-40.593 90.667-90.667v-30.222h60.444c66.765 0 120.889-54.124 120.889-120.889 0-44.713-24.275-83.756-60.365-104.67l-0.080-499.775c0-66.765-54.124-120.889-120.889-120.889h-423.111c-66.765 0-120.889 54.124-120.889 120.889l-0.023 499.742c-36.121 20.906-60.421 59.966-60.421 104.703 0 66.765 54.124 120.889 120.889 120.889h60.416l0.028 30.222c0 50.074 40.593 90.667 90.667 90.667h241.778zM671.836 570.613h-544v-483.556c0-30.998 23.334-56.546 53.395-60.038l7.049-0.407h423.111c30.998 0 56.546 23.334 60.038 53.395l0.407 7.049v483.556zM276.114 398.060c14.837 0 27.176-10.691 29.735-24.79l0.487-5.432v-249.894c0-16.691-13.531-30.222-30.222-30.222-14.837 0-27.176 10.691-29.735 24.79l-0.487 5.432v249.894c0 16.691 13.531 30.222 30.222 30.222zM397.003 398.060c14.837 0 27.176-10.691 29.735-24.79l0.487-5.432v-249.894c0-16.691-13.531-30.222-30.222-30.222-14.837 0-27.176 10.691-29.735 24.79l-0.487 5.432v249.894c0 16.691 13.531 30.222 30.222 30.222zM517.892 398.060c14.837 0 27.176-10.691 29.735-24.79l0.487-5.432v-249.894c0-16.691-13.531-30.222-30.222-30.222-14.837 0-27.176 10.691-29.735 24.79l-0.487 5.432v249.894c0 16.691 13.531 30.222 30.222 30.222zM671.836 751.946h-544c-33.383 0-60.444-27.062-60.444-60.444 0-30.998 23.334-56.546 53.395-60.038l7.049-0.407h544c33.383 0 60.444 27.062 60.444 60.444 0 30.998-23.334 56.546-53.395 60.038l-7.049 0.407zM520.725 872.835h-241.778c-14.837 0-27.176-10.691-29.735-24.79l-0.487-5.432v-30.222h302.222v30.222c0 14.837-10.691 27.176-24.79 29.735l-5.432 0.487z" />
<glyph unicode="&#xe943;" glyph-name="twitter" horiz-adv-x="1308" d="M1141.059 798.084c54.865 31.991 96.939 82.603 116.664 142.946-51.308-29.611-108.005-51.102-168.583-62.617-48.254 50.227-117.311 81.588-193.662 81.588-146.486 0-265.306-115.75-265.306-258.485 0-20.301 2.264-39.972 6.863-58.872-220.501 10.815-416.031 113.614-547.032 270.106-22.851-38.292-35.858-82.673-35.858-130.065 0-89.604 46.852-168.742 117.994-215.153-43.403 1.295-84.399 13.021-120.257 32.271v-3.15c0-125.34 91.513-229.819 212.956-253.48-22.241-6.055-45.631-9.1-69.919-9.1-17.103 0-33.738 1.54-49.907 4.585 33.774-102.694 131.683-177.457 247.88-179.452-90.867-69.373-205.339-110.674-329.584-110.674-21.414 0-42.577 1.155-63.308 3.57 117.455-73.293 256.934-116.1 406.726-116.1 488.25 0 755.065 393.835 755.065 735.484 0 11.235-0.216 22.436-0.719 33.461 51.883 36.471 96.975 82.008 132.401 133.81-47.607-20.546-98.771-34.441-152.414-40.672z" />
<glyph unicode="&#xe944;" glyph-name="twitterSquare" d="M810.667 960c117.821 0 213.333-95.513 213.333-213.333v-597.333c0-117.821-95.513-213.333-213.333-213.333h-597.333c-117.821 0-213.333 95.513-213.333 213.333v597.333c0 117.821 95.513 213.333 213.333 213.333h597.333zM810.667 917.333h-597.333c-92.478 0-167.777-73.554-170.585-165.351l-0.081-5.316v-597.333c0-92.478 73.554-167.777 165.351-170.585l5.316-0.081h597.333c92.478 0 167.777 73.554 170.585 165.351l0.081 5.316v597.333c0 92.478-73.554 167.777-165.351 170.585l-5.316 0.081zM599.52 599.704c26.864 0 51.162-11.035 68.14-28.707 21.314 4.052 41.263 11.613 59.316 22.032-6.94-21.232-21.744-39.039-41.048-50.296 18.874 2.192 36.877 7.081 53.627 14.31-12.465-18.227-28.331-34.249-46.586-47.081 0.177-3.879 0.253-7.82 0.253-11.773 0-120.21-93.879-258.781-265.671-258.781-52.704 0-101.781 15.062-143.107 40.85 7.294-0.85 14.741-1.256 22.275-1.256 43.716 0 83.993 14.532 115.965 38.941-40.884 0.702-75.334 27.007-87.217 63.141 5.689-1.071 11.542-1.613 17.56-1.613 8.546 0 16.776 1.071 24.601 3.202-42.73 8.325-74.929 45.086-74.929 89.187v0 1.108c12.617-6.773 27.041-10.899 42.313-11.355-25.031 16.33-41.516 44.175-41.516 75.702 0 16.675 4.576 32.291 12.617 45.764 46.093-55.062 114.89-91.232 192.474-95.037-1.618 6.65-2.415 13.571-2.415 20.714 0 50.222 41.807 90.948 93.348 90.948z" />
<glyph unicode="&#xe945;" glyph-name="user" d="M317.91 356.165c24.587-0.359 45.002-20.912 47.374-47.61 2.534-28.52-16.345-54.494-42.781-57.465v0l-10.574-1.787c-87.38-17.322-155.895-94.958-171.459-193.56v0l-1.284-9.275h768.384l-1.037 8.6c-14.85 99.382-83.891 177.725-171.697 194.334v0l-10.213 1.64c-26.805 3.017-45.684 28.991-43.15 57.511 2.189 24.644 19.753 44.053 41.78 47.175v0l5.043 0.38 6.311-0.229 11.673-1.799c38.071-7.034 87.485-26.388 133.449-62.381 79.84-62.52 127.206-159.777 127.206-297.505 0-28.658-21.186-52.507-48.187-52.507v0h-870.738c-27.001 0-48.187 23.848-48.187 52.507 0 137.728 47.366 234.985 127.206 297.505 50.142 39.265 104.391 58.728 143.818 64.032v0zM528.904 908.8c145.055 0 262.502-130.436 262.502-290.134s-117.446-290.134-262.502-290.134c-144.89 0-262.502 130.529-262.502 290.134 0 159.698 117.446 290.134 262.502 290.134zM528.904 812.089c-88.195 0-160.264-85.637-160.264-193.422s72.069-193.422 160.264-193.422c88.195 0 160.264 85.637 160.264 193.422s-72.069 193.422-160.264 193.422z" />
<glyph unicode="&#xe946;" glyph-name="videoGames" horiz-adv-x="1536" d="M651.913 822.882c1.61-1.569 3.5-2.8 5.396-3.614l2.815-0.899 3.89-0.404h223.263c4.96 0 9.682 2.124 12.972 5.835 64.103 72.295 162.305 101.204 292.526 87.044 138.363-15.045 226.169-97.783 259.325-243.701l3.235-15.32 20.046-116.852 13.914-84.781 11.381-73.386 8.848-62.029 4.1-31.829 4.048-36.107 1.422-15.425 1.371-19.759 0.407-10.962 0.051-4.795c0-115.346-50.332-188.715-163.655-228.526-106.279-37.336-194.017-20.302-276.528 47.4-37.581 30.835-74.261 102.804-113.109 219.863-42.090 102.061-106.762 151.132-197.986 151.132-90.775 0-152.211-48.493-188.815-149.93-5.383-14.918-21.84-22.647-36.757-17.264s-22.647 21.84-17.264 36.757c44.665 123.78 127.136 187.868 242.836 187.868 111.001 0 193.797-58.909 245.694-174.4l6.079-14.13 4.874-14.451 9.679-27.441 9.483-25.232 9.364-23.253 4.566-10.721 9.088-20.082c17.652-37.348 34.166-62.393 48.698-74.318 67.13-55.081 134.413-68.055 221.064-37.614 85.801 30.142 122.065 78.684 125.058 162.56l0.203 11.658-0.194 9.113-0.591 10.983-1.642 20.032-2.543 24.186-4.794 38.697-8.242 58.66-13.182 85.384-16.763 101.63-16.68 96.924c-25.545 130.613-94.737 199.583-212.298 212.366-111.994 12.178-192.439-10.64-243.347-68.053-10.604-11.959-24.697-20.138-40.341-23.492l-7.942-1.27-7.66-0.401h-223.258c-19.494-0.004-38.219 7.609-52.183 21.214-67.403 65.671-142.086 93.997-226.073 85.984-109.447-10.442-204.264-87.914-229.734-179.161l-2.542-10.192-3.542-17.121-5.527-29.644-8.186-47.938-11.683-73.416-21.309-142.54-19.69-137.609c-12.857-97.526 10.18-160.501 69.447-193.844 62.781-35.321 135.991-40.584 217.215-16.107 47.319 23.614 84.6 67.094 112.060 131.249 6.241 14.58 23.119 21.34 37.698 15.099s21.34-23.119 15.099-37.698c-33.015-77.131-79.759-130.37-143.624-161.8-99.903-30.607-189.315-24.282-266.608 19.203-77.797 43.768-111.254 124.092-99.921 236.788l1.732 14.883 19.824 138.552 19.297 129.468 8.314 53.235 10.805 65.473 6.101 34.109 4.001 20.589 2.389 11.326c26.373 120.025 144.521 221.063 282.928 234.268 101.031 9.639 192.244-24.698 271.605-102.020zM1134.606 552.859c49.080 0 88.867-39.787 88.867-88.867s-39.787-88.867-88.867-88.867c-49.080 0-88.867 39.787-88.867 88.867s39.787 88.867 88.867 88.867zM422.424 809.622c38.712 0 70.553-29.421 74.382-67.125l0.386-7.645-0.041-40.353 40.405-0.010c36.132 0 66.277-25.629 73.249-59.7l1.133-7.424 0.386-7.645c0-38.713-29.421-70.553-67.124-74.382l-7.645-0.386-40.404 0.043 0.041-40.407c0-36.132-25.629-66.277-59.7-73.249l-7.424-1.133-7.645-0.386c-38.712 0-70.553 29.421-74.382 67.123l-0.386 7.644-0.065 40.408-40.299-0.043c-36.132 0-66.277 25.629-73.249 59.7l-1.133 7.424-0.386 7.645c0 38.712 29.421 70.553 67.123 74.382l7.645 0.386 40.299 0.010 0.065 40.354c0 36.132 25.629 66.277 59.7 73.249l7.424 1.133 7.645 0.386zM1134.606 495.428c-17.362 0-31.437-14.075-31.437-31.437s14.075-31.437 31.437-31.437c17.362 0 31.437 14.075 31.437 31.437s-14.075 31.437-31.437 31.437zM422.424 752.191c-7.012 0-13.152-4.194-15.824-10.033l-1.166-3.68-0.348-3.636-0.019-92.090-5.689-5.688-92.087-0.006c-9.575 0-17.338-7.762-17.338-17.338 0-7.011 4.193-13.152 10.027-15.824l3.677-1.166 3.63-0.348 92.090 0.006 5.689-5.688 0.019-92.113c0-9.575 7.762-17.338 17.338-17.338 7.010 0 13.152 4.193 15.824 10.025l1.166 3.675 0.348 3.627-0.019 92.121 5.689 5.69 92.125-0.006c9.575 0 17.338 7.762 17.338 17.338 0 7.011-4.194 13.152-10.030 15.824l-3.678 1.166-3.633 0.348-92.122 0.006-5.689 5.69 0.019 92.099c0 9.575-7.762 17.338-17.338 17.338zM1267.692 685.944c49.080 0 88.867-39.787 88.867-88.867s-39.787-88.867-88.867-88.867c-49.080 0-88.867 39.787-88.867 88.867s39.787 88.867 88.867 88.867zM1001.521 685.944c49.080 0 88.867-39.787 88.867-88.867s-39.787-88.867-88.867-88.867c-49.080 0-88.867 39.787-88.867 88.867s39.787 88.867 88.867 88.867zM1001.521 628.514c-17.362 0-31.437-14.075-31.437-31.437s14.075-31.437 31.437-31.437c17.362 0 31.437 14.075 31.437 31.437s-14.075 31.437-31.437 31.437zM1267.692 628.514c-17.362 0-31.437-14.075-31.437-31.437s14.075-31.437 31.437-31.437c17.362 0 31.437 14.075 31.437 31.437s-14.075 31.437-31.437 31.437zM1134.606 819.030c49.080 0 88.867-39.787 88.867-88.867s-39.787-88.867-88.867-88.867c-49.080 0-88.867 39.787-88.867 88.867s39.787 88.867 88.867 88.867zM1134.606 761.599c-17.362 0-31.437-14.075-31.437-31.437s14.075-31.437 31.437-31.437c17.362 0 31.437 14.075 31.437 31.437s-14.075 31.437-31.437 31.437z" />
<glyph unicode="&#xe947;" glyph-name="vintageChair" horiz-adv-x="1084" d="M761.499 959.954l14.086-0.366c81.534-3.606 127.425-43.853 130.712-145.948l0.19-12.056-0.006-121.21c100.423-5.938 141.809-82.539 130-166.515-4.823-34.294-24.94-69.485-59.452-106.36l-2.451-2.449 0.004-259.077c-3.334-64.603-41.379-101.906-105.575-105.313l-9.824-0.256-2.205 0.043 0.053-75.952c0-13.964-10.062-25.578-23.331-27.986l-5.113-0.458h-66.833c-13.964 0-25.578 10.062-27.986 23.331l-0.458 5.113-0.054 75.952-388.277 0.060 0.054-76.012c0-13.964-10.062-25.578-23.331-27.986l-5.113-0.458h-66.833c-13.964 0-25.578 10.062-27.986 23.331l-0.458 5.113-0.055 76.012-6.29-0.029c-74.53 5.378-119.205 38.886-123.291 97.915l-0.307 9.045-0.042 254.596-9.723 7.614c-27.181 22.269-45.334 45.51-53.874 70.219l-2.751 9.336c-11.084 45.375-2.852 86.893 21.505 119.548 9.392 12.592 27.215 15.186 39.807 5.794s15.186-27.215 5.794-39.807c-14.149-18.969-18.923-43.047-11.842-72.035 4.084-16.721 19.123-35.681 46.226-55.938l9.483-6.799 12.305-8.479v-284.047c0-28.729 16.951-44.35 59.292-49.257l9.465-0.888h642.172c37.757 0 54.408 12.769 57.98 43.324l0.568 6.822v280.922l8.375 8.339c33.138 32.994 50.753 61.703 54.041 85.081 8.050 57.244-17.556 102.073-86.395 102.073-53.826 0-80.877-22.347-87.965-71.89l-1.097-9.609v-237.069c0-55.799-27.429-91.652-78.78-98.72l-9.31-0.947h-357.471c-60.998 0-96.297 31.098-93.092 81.816l0.828 8.17v246.749c0 43.5-30.511 72.542-72.438 82.23-20.28 4.686-41.015 2.338-63.073-7.456-14.358-6.375-31.165 0.096-37.54 14.453s0.096 31.165 14.453 37.54c21.352 9.481 42.805 14.408 64.126 14.67l0.014 118.859c3.754 99.945 36.507 157.349 102.584 157.349l11.192-0.148 11.044-0.499 11.655-0.93 20.287-2.38 25.927-3.805 80.459-13.038 26.1-3.752c28.576-3.78 52.861-5.726 74.89-5.726 30.994 0 57.736 3.334 94.796 10.948l64.834 13.814 18.425 3.256 9.954 1.257 9.245 0.696 9.525 0.278 18.175-0.018zM288.114 40.508h-9.939l-0.030-47.56h9.956l0.013 47.56zM790.175 40.448l-0.031-47.5h9.956l0.015 47.5h-9.939zM747.769 354.696h-424.237l-0.031-62.859c-2.809-21.007 2.78-28.221 28.712-29.206l6.914-0.121 355.525-0.067c22.123 1.517 31.54 10.687 32.956 35.641l0.191 7.203-0.030 49.409zM274.989 903.111c-24.833 0-41.096-26.085-45.131-89.876l-0.584-11.651 0.043-128.165c51.438-19.056 90.077-60.996 94.091-120.695l0.345-10.369-0.16-127.425h424.237l0.073 129.845c6.13 71.785 41.519 117.005 101.657 131.172l0.038 125.636c0 75.494-19.111 96.807-69.164 100.726l-11.291 0.596-8.568 0.166-19.702-0.064-7.004-0.375-7.354-0.754-8.401-1.241-10.145-1.836-20.010-4.108-27.853-6.057c-49.739-10.928-83.159-15.802-123.562-15.802-19.873 0-40.906 1.367-64.322 4.003l-35.763 4.695-30.553 4.786-57.665 9.406-31.232 4.509-17.466 1.873-10.080 0.672-9.622 0.3c-1.603 0.023-3.216 0.034-4.852 0.034zM397.134 783.126c14.785 0 27.082-10.062 29.632-23.331l0.485-5.113-0.054-9.781 15.52-0.017c15.709 0 28.444-13.484 28.444-30.118 0-14.785-10.062-27.082-23.331-29.632l-5.113-0.485-15.52 0.017 0.054-6.469c0-15.709-13.484-28.444-30.118-28.444-14.785 0-27.082 10.062-29.632 23.331l-0.485 5.113-0.054 6.469-23.314-0.017c-15.709 0-28.444 13.484-28.444 30.118 0 14.785 10.062 27.082 23.331 29.632l5.113 0.485 23.314 0.017 0.054 9.781c0 15.709 13.484 28.444 30.118 28.444zM681.578 783.126c14.785 0 27.082-10.062 29.632-23.331l0.485-5.113-0.007-9.781 15.473-0.017c15.709 0 28.444-13.484 28.444-30.118 0-14.785-10.062-27.082-23.331-29.632l-5.113-0.485-15.473 0.017 0.007-6.469c0-15.709-13.484-28.444-30.118-28.444-14.785 0-27.082 10.062-29.632 23.331l-0.485 5.113-0.007 6.469-23.361-0.017c-15.709 0-28.444 13.484-28.444 30.118 0 14.785 10.062 27.082 23.331 29.632l5.113 0.485 23.361 0.017 0.007 9.781c0 15.709 13.484 28.444 30.118 28.444z" />
</font>
</defs>
</svg>
